Loading...
Error

(Pop) Алла Пугачева - Миллион роз (1988) [APE (Image+.Cue) Lossless]

Статистика раздачи
Размер:  258 MB   |    Зарегистрирован:  1 год 7 месяцев   |    Скачан:  8 раз

Полного источника не было: 1 месяц 7 дней

Сидов:  0  |  0 KB/s  ]   Личеров:  0  |  0 KB/s  ]

* - сиды/пиры с внешних источников

   
 
Автор Сообщение

Бишеп Пол:Муж

20-Ноя-2016 18:04

Алла Пугачева - Миллион роз

Жанр: Pop
Год выпуска: 1988
Источник: CD
Производитель диска: Victor, Мелодия - VDP-1335
Аудиокодек: APE
Тип рипа: Image+.CUE
Битрейт аудио: lossless
Продолжительность: 00:46:06


Треклист:
01. Миллион роз (5:29)
02. Я больше не ревную (5:12)
03. Дежурный ангел (4:31)
04. Лестница (3:50)
05. Поздно (4:26)
06. Как тревожен этот путь (4:57)
07. Канатоходка (5:57)
09. Когда я буду бабушкой (3:06)
10. Старинные часы (4:40)

Код:

Exact Audio Copy V0.99 prebeta 5 from 4. May 2009

Отчёт EAC об извлечении, выполненном 11. декабря 2010, 20:40

Алла Пугачёва / Миллион роз

Дисковод: Optiarc DVD RW AD-7173A   Adapter: 0  ID: 0

Режим чтения                 : Достоверность
Использование точного потока : Да
Отключение кэша аудио        : Да
Использование указателей C2  : Нет

Коррекция смещения при чтении                     : 48
Способность читать области Lead-in и Lead-out     : Нет
Заполнение пропущенных сэмплов тишиной            : Да
Удаление блоков с тишиной в начале и конце        : Нет
При вычислениях CRC использовались нулевые сэмплы : Да
Интерфейс                                         : Встроенный Win32-интерфейс для Win NT/2000

Выходной формат : Внутренние WAV-операции
Формат сэмплов  : 44.100 Гц; 16 бит; стерео

TOC извлечённого CD

     Трек |   Старт  | Длительность | Начальный сектор | Конечный сектор
    ---------------------------------------------------------------------
       1  |  0:00.37 |    5:32.50   |          37      |      24986     
       2  |  5:33.12 |    5:16.28   |       24987      |      48714     
       3  | 10:49.40 |    4:34.37   |       48715      |      69301     
       4  | 15:24.02 |    3:53.58   |       69302      |      86834     
       5  | 19:17.60 |    4:25.40   |       86835      |     106749     
       6  | 23:43.25 |    4:56.72   |      106750      |     129021     
       7  | 28:40.22 |    5:57.10   |      129022      |     155806     
       8  | 34:37.32 |    3:42.63   |      155807      |     172519     
       9  | 38:20.20 |    3:05.50   |      172520      |     186444     
      10  | 41:25.70 |    4:40.15   |      186445      |     207459     

Характеристики диапазона извлечения и сообщения об ошибках

Выбранный диапазон

     Имя файла D:\Audio\Pop\Пугачёва, Алла\1988 Миллион роз\CDImage.wav

     Пиковый уровень 98.3 %
     Качество диапазона 100.0 %
     CRC теста F9EDEA3B
     CRC копии F9EDEA3B
     Копирование... OK

Ошибок не произошло

 
AccurateRip: сводка
 
Трек  1  точное извлечение (доверие 1)  [83A3351F]
Трек  2  точное извлечение (доверие 1)  [258D7FC6]
Трек  3  точное извлечение (доверие 1)  [33F49345]
Трек  4  точное извлечение (доверие 1)  [1C6B8F02]
Трек  5  точное извлечение (доверие 1)  [7B36274B]
Трек  6  точное извлечение (доверие 1)  [2D911D41]
Трек  7  точное извлечение (доверие 1)  [FB98C0A0]
Трек  8  точное извлечение (доверие 1)  [9E194E24]
Трек  9  точное извлечение (доверие 1)  [DD8DED57]
Трек 10  точное извлечение (доверие 1)  [85F21042]
 
Все треки извлечены точно

Конец отчёта

Код:

REM GENRE Pop
REM DATE 1988
REM DISCID 800ACE0A
REM COMMENT "ExactAudioCopy v0.99pb5"
PERFORMER "Алла Пугачёва"
TITLE "Миллион роз"
FILE "CDImage.ape" WAVE
  TRACK 01 AUDIO
    TITLE "Миллион роз"
    PERFORMER "Алла Пугачёва"
    INDEX 00 00:00:00
    INDEX 01 00:00:37
  TRACK 02 AUDIO
    TITLE "Я больше не ревную"
    PERFORMER "Алла Пугачёва"
    INDEX 00 05:29:50
    INDEX 01 05:33:12
  TRACK 03 AUDIO
    TITLE "Дежурный ангел"
    PERFORMER "Алла Пугачёва"
    INDEX 00 10:46:02
    INDEX 01 10:49:40
  TRACK 04 AUDIO
    TITLE "Лестница"
    PERFORMER "Алла Пугачёва"
    INDEX 00 15:20:39
    INDEX 01 15:24:02
  TRACK 05 AUDIO
    TITLE "Поздно"
    PERFORMER "Алла Пугачёва"
    INDEX 00 19:14:22
    INDEX 01 19:17:60
  TRACK 06 AUDIO
    TITLE "Как тревожен этот путь"
    PERFORMER "Алла Пугачёва"
    INDEX 00 23:39:62
    INDEX 01 23:43:25
  TRACK 07 AUDIO
    TITLE "Канатоходка"
    PERFORMER "Алла Пугачёва"
    INDEX 00 28:36:60
    INDEX 01 28:40:22
  TRACK 08 AUDIO
    TITLE "Вот так случилось, мама"
    PERFORMER "Алла Пугачёва"
    INDEX 00 34:33:70
    INDEX 01 34:37:32
  TRACK 09 AUDIO
    TITLE "Когда я буду бабушкой"
    PERFORMER "Алла Пугачёва"
    INDEX 00 38:16:57
    INDEX 01 38:20:20
  TRACK 10 AUDIO
    TITLE "Старинные часы"
    PERFORMER "Алла Пугачёва"
    INDEX 00 41:22:32
    INDEX 01 41:25:70

Этот торрент недоступен для скачивания без регистрации, однако доступен по публичной magnet-ссылке (источники с публичных трекеров). Перед использованием ссылки прочтите, пожалуйста Пользовательское соглашение, а также как можно дольше оставайтесь на раздаче! Для того, чтобы скачать сам торрент-файл (который видит больше источников), а также для того, чтобы поблагодарить релизера, вам необходимо зарегистрироваться. Если регистрироваться лень - вы можете также попробовать скачать релиз по нашим партнерским ссылкам ниже. Кроме того, зарегистрированным пользователям не показывается всплывающая реклама при скачивании.

[underverse.su].t74149.torrent
Трекер: Зарегистрирован   [ 20.11.2016 18:04 ]  

Статус: проверено (by Бишеп at 20.11.2016 18:04)
Поблагодарили: 1 человек
Тип торрента: публичный - доступные источники с открытых трекеров: 
Размер: 258 MB (занимает 0,06 DVDR, для записи нужно 1 болванка DVDR/RW)
 
 
Похожие темы
Форум Тема Автор Торрент Отв. Посл. сооб.
Отечественная Поп Музыка (Lossless) (Pop) Алла Пугачёва - Лучшее (1976-1990) Часть 1 [2CD] (2008) [FLAC (Image+.CUE), Lossless] Бишеп
1 | 0

0 | 1507

45

27.04.2012 15:33

Отечественная Поп Музыка (Lossless) (Pop) Алла Пугачёва - Лучшие песни (2000) [FLAC (Image+.CUE), Lossless] Бишеп
1 | 0

0 | 379

7

02.02.2018 19:57


Яндекс.Метрика powered by Sphinx


В Н И М А Н И Е
Сайт не распространяет и не хранит электронные версии произведений, а лишь бесплатно и без коммерческой выгоды (не требуя взамен платы,
SMS и т.д.) предоставляет доступ к создаваемому пользователями каталогу ссылок на торрент-файлы, которые содержат только списки хеш-сумм.
Убедительная просьба с жалобами обращаться напрямую к пользователю, разместившему торрент файл.

Вверх