Loading...
Error

(Pop) ВИА ГРА - Бриллианты (Лучшие песни) (2005) [FLAC (Image+.Cue), Lossless]

Статистика раздачи
Размер:  650 MB   |    Зарегистрирован:  1 год 10 месяцев   |    Скачан:  15 раз

Полного источника не было: 1 месяц 3 дня

Сидов:  0  |  0 KB/s  ]   Личеров:  0  |  0 KB/s  ]

* - сиды/пиры с внешних источников

   
 
Автор Сообщение

Бишеп Пол:Муж

20-Ноя-2016 15:33

ВИА ГРА - Бриллианты (Лучшие песни)

Жанр: Pop
Год выпуска: 2005
Источник: CD
Производитель диска: CD Land - CDLREC 352005
Аудиокодек: FLAC
Тип рипа: Image+.CUE
Битрейт аудио: lossless
Продолжительность: 00:51:43


Треклист:
01. Бриллианты
02. Ой говорыла чиста вода New!
03. Биология
04. Стоп! Стоп! Стоп!
05. Попытка №5
06. Океан и три реки
07. Мир, о котором я не знала до тебя
08. Притяженья больше нет
09. Good morning, папа!
10. Убей мою подругу
11. Не оставляй меня любимый!
12. Я не вернусь
13. Бомба
14. Нет ничего хуже

Код:

Exact Audio Copy V1.0 beta 2 from 29. April 2011

Отчёт EAC об извлечении, выполненном 20. января 2012, 16:41

Группа «ВИА ГРА» / Бриллианты [Лучшие песни]

Дисковод: Optiarc DVD RW AD-7190A   Adapter: 0  ID: 0

Режим чтения                 : Достоверность
Использование точного потока : Да
Отключение кэша аудио        : Да
Использование указателей C2  : Нет

Коррекция смещения при чтении                     : 6
Способность читать области Lead-in и Lead-out     : Нет
Заполнение пропущенных сэмплов тишиной            : Да
Удаление блоков с тишиной в начале и конце        : Нет
При вычислениях CRC использовались нулевые сэмплы : Да
Интерфейс                                         : Встроенный Win32-интерфейс для Win NT/2000

Выходной формат : Внутренние WAV-операции
Формат сэмплов  : 44.100 Гц; 16 бит; стерео

TOC извлечённого CD

     Трек |   Старт  | Длительность | Начальный сектор | Конечный сектор
    ---------------------------------------------------------------------
       1  |  0:00.00 |    3:25.32   |           0      |      15406     
       2  |  3:25.32 |    3:54.15   |       15407      |      32971     
       3  |  7:19.47 |    3:43.06   |       32972      |      49702     
       4  | 11:02.53 |    3:43.11   |       49703      |      66438     
       5  | 14:45.64 |    3:22.73   |       66439      |      81661     
       6  | 18:08.62 |    3:37.24   |       81662      |      97960     
       7  | 21:46.11 |    3:55.34   |       97961      |     115619     
       8  | 25:41.45 |    4:23.08   |      115620      |     135352     
       9  | 30:04.53 |    3:33.32   |      135353      |     151359     
      10  | 33:38.10 |    3:43.61   |      151360      |     168145     
      11  | 37:21.71 |    3:30.38   |      168146      |     183933     
      12  | 40:52.34 |    3:44.05   |      183934      |     200738     
      13  | 44:36.39 |    3:26.31   |      200739      |     216219     
      14  | 48:02.70 |    3:40.13   |      216220      |     232732     
      15  | 54:15.08 |    1:39.05   |      244133      |     251562     

Характеристики диапазона извлечения и сообщения об ошибках

Выбранный диапазон

     Имя файла E:\ОТЕЧЕСТВЕННЫЕ [ROCK - POP] ГРУППЫ\ГРУППА «ВИА ГРА» © [Дискография]\Группа «ВИА ГРА» (с) 2005 [Бриллианты]\Группа «ВИА ГРА» - Бриллианты [Лучшие песни].wav

     Пиковый уровень 100.0 %
     Скорость извлечения 4.4 X
     Качество диапазона 100.0 %
     CRC теста 4B1CA6F1
     CRC копии 4B1CA6F1
     Копирование... OK

Ошибок не произошло

 
AccurateRip: сводка
 
Трек  1  отсутствует в базе данных
Трек  2  отсутствует в базе данных
Трек  3  отсутствует в базе данных
Трек  4  отсутствует в базе данных
Трек  5  отсутствует в базе данных
Трек  6  отсутствует в базе данных
Трек  7  отсутствует в базе данных
Трек  8  отсутствует в базе данных
Трек  9  отсутствует в базе данных
Трек 10  отсутствует в базе данных
Трек 11  отсутствует в базе данных
Трек 12  отсутствует в базе данных
Трек 13  отсутствует в базе данных
Трек 14  отсутствует в базе данных
 
Ни одного трека нет в базе AccurateRip

Конец отчёта

==== Контрольная сумма отчёта 57C4AB6364FCB814F9D6F8892594AE49C8C09193C161220FE78D8385487ED20A ====

Код:

REM GENRE Pop
REM DATE 2005
REM DISCID C90D1A0F
REM COMMENT "ExactAudioCopy v1.0b2"
PERFORMER "Группа «ВИА ГРА»"
TITLE "Бриллианты [Лучшие песни]"
FILE "Группа «ВИА ГРА» - Бриллианты [Лучшие песни].flac" WAVE
  TRACK 01 AUDIO
    TITLE "Бриллианты (Музыка и слова Константин Меладзе)"
    PERFORMER "Группа «ВИА ГРА»"
    FLAGS DCP
    INDEX 01 00:00:00
  TRACK 02 AUDIO
    TITLE "Ой говорыла чиста вода (Музыка и слова Константин Меладзе) "
    PERFORMER "Группа «ВИА ГРА»"
    FLAGS DCP
    INDEX 00 03:24:32
    INDEX 01 03:25:32
  TRACK 03 AUDIO
    TITLE "Биология (Музыка и слова Константин Меладзе)"
    PERFORMER "Группа «ВИА ГРА»"
    FLAGS DCP
    INDEX 00 07:18:47
    INDEX 01 07:19:47
  TRACK 04 AUDIO
    TITLE "Стоп! Стоп! Стоп! (Музыка и слова Константин Меладзе)"
    PERFORMER "Группа «ВИА ГРА»"
    FLAGS DCP
    INDEX 00 11:01:53
    INDEX 01 11:02:53
  TRACK 05 AUDIO
    TITLE "Попытка №5 (Музыка и слова Константин Меладзе)"
    PERFORMER "Группа «ВИА ГРА»"
    FLAGS DCP
    INDEX 00 14:44:64
    INDEX 01 14:45:64
  TRACK 06 AUDIO
    TITLE "Океан и три реки (Музыка и слова Константин Меладзе)"
    PERFORMER "Группа «ВИА ГРА» & Валерий Меладзе"
    FLAGS DCP
    INDEX 00 18:07:62
    INDEX 01 18:08:62
  TRACK 07 AUDIO
    TITLE "Мир, о котором я не знала до тебя (Музыка и слова Константин Меладзе)"
    PERFORMER "Группа «ВИА ГРА»"
    FLAGS DCP
    INDEX 00 21:45:11
    INDEX 01 21:46:11
  TRACK 08 AUDIO
    TITLE "Притяженья больше нет (Музыка и слова Константин Меладзе)"
    PERFORMER "Группа «ВИА ГРА» & Валерий Меладзе"
    FLAGS DCP
    INDEX 00 25:40:45
    INDEX 01 25:41:45
  TRACK 09 AUDIO
    TITLE "Good morning, папа! (Музыка и слова Константин Меладзе)"
    PERFORMER "Группа «ВИА ГРА»"
    FLAGS DCP
    INDEX 00 30:03:53
    INDEX 01 30:04:53
  TRACK 10 AUDIO
    TITLE "Убей мою подругу (Музыка и слова Константин Меладзе)"
    PERFORMER "Группа «ВИА ГРА»"
    FLAGS DCP
    INDEX 00 33:37:10
    INDEX 01 33:38:10
  TRACK 11 AUDIO
    TITLE "Не оставляй меня любимый (Музыка и слова Константин Меладзе)"
    PERFORMER "Группа «ВИА ГРА»"
    FLAGS DCP
    INDEX 00 37:20:71
    INDEX 01 37:21:71
  TRACK 12 AUDIO
    TITLE "Я не вернусь (Музыка и слова Константин Меладзе)"
    PERFORMER "Группа «ВИА ГРА»"
    FLAGS DCP
    INDEX 00 40:51:34
    INDEX 01 40:52:34
  TRACK 13 AUDIO
    TITLE "Бомба (Музыка и слова Константин Меладзе)"
    PERFORMER "Группа «ВИА ГРА»"
    FLAGS DCP
    INDEX 00 44:35:39
    INDEX 01 44:36:39
  TRACK 14 AUDIO
    TITLE "Нет ничего хуже (Музыка и слова Константин Меладзе)"
    PERFORMER "Группа «ВИА ГРА» & Группа «ТНМК»"
    FLAGS DCP
    INDEX 00 48:01:70
    INDEX 01 48:02:70

Этот торрент недоступен для скачивания без регистрации, однако доступен по публичной magnet-ссылке (источники с публичных трекеров). Перед использованием ссылки прочтите, пожалуйста Пользовательское соглашение, а также как можно дольше оставайтесь на раздаче! Для того, чтобы скачать сам торрент-файл (который видит больше источников), а также для того, чтобы поблагодарить релизера, вам необходимо зарегистрироваться. Если регистрироваться лень - вы можете также попробовать скачать релиз по нашим партнерским ссылкам ниже. Кроме того, зарегистрированным пользователям не показывается всплывающая реклама при скачивании.

[underverse.su].t74135.torrent
Трекер: Зарегистрирован   [ 20.11.2016 15:33 ]  

Статус: проверено (by Бишеп at 20.11.2016 15:33)
Поблагодарили: 1 человек
Тип торрента: публичный - доступные источники с открытых трекеров: 
Размер: 650 MB (занимает 0,14 DVDR, для записи нужно 1 болванка DVDR/RW)
 
 
Похожие темы
Форум Тема Автор Торрент Отв. Посл. сооб.
Отечественная Поп Музыка (Lossless) (Pop) ВИА Круг - Звёздная Серия (2003) [FLAC (Image+.CUE), Lossless] Бишеп
0 | 0

0 | 1772

22

13.10.2012 04:26

Отечественная Поп Музыка (Lossless) (Pop) ВИА Синяя Птица - Лучшее 2CD (2008) [FLAC (Image+.CUE), Lossless] Бишеп
0 | 0

0 | 2867

38

01.11.2012 06:43


Яндекс.Метрика powered by Sphinx


В Н И М А Н И Е
Сайт не распространяет и не хранит электронные версии произведений, а лишь бесплатно и без коммерческой выгоды (не требуя взамен платы,
SMS и т.д.) предоставляет доступ к создаваемому пользователями каталогу ссылок на торрент-файлы, которые содержат только списки хеш-сумм.
Убедительная просьба с жалобами обращаться напрямую к пользователю, разместившему торрент файл.

Вверх