Loading...
Error

Полуостров Камчатка (Александр Ефимов) [2011 г., документальный, научно-популярный, путешествия, TVRip]

Статистика раздачи
Размер:  700 MB   |    Зарегистрирован:  16 дней   |    Скачан:  1 раз

Полного источника не было: 3 часа

Сидов:  0  |  0 KB/s  ]   Личеров:  0  |  0 KB/s  ]

* - сиды/пиры с внешних источников

   
 
Автор Сообщение

ARI71 Пол:Муж

20-Ноя-2016 11:35

Полуостров Камчатка


Год выпуска: 2011
Жанр: документальный, научно-популярный, путешествия
Страна: Россия (RTG TV)
Режиссер: Александр Ефимов
Сюжет фильма:
Пейзажи Камчатки многолики и неповторимы. Этот полуостров как будто первозданный высокогорный мир, где стихии противостоят друг другу. Здесь можно увидеть вулканы и ледники, безжизненную тундру и зеленую тайгу. На камчатском полуострове находится удивительная по своей красоте Долина гейзеров. А неподалеку от нее расположено еще одно чудо - котлообразная впадина древнего вулкана Узон, где энергия земли рвется наружу прямо из-под ног. На Камчатке насчитывается до 14 тысяч рек! По ним из океанских вод идет на нерест лосось. Рыба играет огромное значение в питании медведей. Звери активно кормятся, набирая до полутора килограммов в день. Загадочный полуостров способен подарить самые незабываемые впечатления и нет сомнения в том, что Камчатка - одно из самых удивительных мест на планете.
Качество видео: TVRip

Продолжительность: 00:48:37
Формат: AVI
Видео: XviD, 704x528, 1876 kbps
Аудио: русский, MP3 2.0, 128 kbps

Код:

Общее
Полное имя : D:\poluostrov-kamchatka.avi
Формат : AVI
Формат/Информация : Audio Video Interleave
Размер файла : 700 Мбайт
Продолжительность : 48 м.
Общий поток : 2012 Кбит/сек
Библиотека кодирования : TMPGEnc 4.0 XPress Version. 4.7.4.299

Видео
Идентификатор : 0
Формат : MPEG-4 Visual
Профиль формата : Advanced Simple@L5
Параметр BVOP формата : 2
Параметр QPel формата : Нет
Параметр GMC формата : Без точки перехода
Параметр матрицы формата : Default (H.263)
Режим смешивания : Сжатый битовый поток
Идентификатор кодека : XVID
Идентификатор кодека/Подсказка : XviD
Продолжительность : 48 м.
Битрейт : 1876 Кбит/сек
Ширина : 704 пикселя
Высота : 528 пикселей
Соотношение сторон : 4:3
Частота кадров : 25,000 кадров/сек
Цветовое пространство : YUV
Субдискретизация насыщенности : 4:2:0
Битовая глубина : 8 бит
Тип развёртки : Прогрессивная
Метод сжатия : С потерями
Бит/(Пиксели*Кадры) : 0.202
Размер потока : 653 Мбайт (93%)
Библиотека кодирования : XviD 64

Аудио
Идентификатор : 1
Формат : MPEG Audio
Версия формата : Version 1
Профиль формата : Layer 3
Режим : Joint stereo
Расширение режима : MS Stereo
Идентификатор кодека : 55
Идентификатор кодека/Подсказка : MP3
Продолжительность : 48 м.
Вид битрейта : Постоянный
Битрейт : 128 Кбит/сек
Каналы : 2 канала
Частота : 48,0 КГц
Метод сжатия : С потерями
Размер потока : 44,5 Мбайт (6%)
Выравнивание : Разделение по промежуткам
Продолжительность промежутка : 250 мс. (6,25 видеокадров)
Время предзагрузки промежутка : 237 мс.
picpicpicpicpic
Для увеличения картинки щелкните мышкой по превью

Этот торрент недоступен для скачивания без регистрации, однако доступен по публичной magnet-ссылке (источники с публичных трекеров). Перед использованием ссылки прочтите, пожалуйста Пользовательское соглашение, а также как можно дольше оставайтесь на раздаче! Для того, чтобы скачать сам торрент-файл (который видит больше источников), а также для того, чтобы поблагодарить релизера, вам необходимо зарегистрироваться. Если регистрироваться лень - вы можете также попробовать скачать релиз по нашим партнерским ссылкам ниже.

[underverse.su].t74102.torrent
Трекер: Зарегистрирован   [ 20.11.2016 11:35 ]  

Статус: проверено (by ARI71 at 20.11.2016 11:37)
Поблагодарили: пока никто не поблагодарил...
Тип торрента: публичный - доступные источники с открытых трекеров: 
Размер: 700 MB (занимает 0,16 DVDR, для записи нужно 1 болванка DVDR/RW)
 
 
Похожие темы
Форум Тема Автор Торрент Отв. Посл. сооб.
Другие фильмы Полуостров сокровищ (1-2 серии из 2) / (Сергей Мерзляков) [2016 г., документальный, познавательный, история, подводная археология, WEB-DLRip] ARI71
1 | 0

0 | 813

6

20.06.2016 16:48

Другие фильмы Полуостров сокровищ (1-2 серии из 2) / (Сергей Мерзляков) [2016 г., документальный, познавательный, история, подводная археология, WEB-DL 720p] ARI71
2 | 0

0 | 751

3

21.06.2016 12:17


Яндекс.Метрика powered by Sphinx


В Н И М А Н И Е
Сайт не распространяет и не хранит электронные версии произведений, а лишь бесплатно и без коммерческой выгоды (не требуя взамен платы,
SMS и т.д.) предоставляет доступ к создаваемому пользователями каталогу ссылок на торрент-файлы, которые содержат только списки хеш-сумм.
Убедительная просьба с жалобами обращаться напрямую к пользователю, разместившему торрент файл.

Вверх