Loading...
Error

Страсти по Солоницыну (Наталья Гугуева) [2006 г., документальный, биография, кинематограф, TVRip]

Статистика раздачи
Размер:  325 MB   |    Зарегистрирован:  14 дней   |    Скачан:  0 раз

Полного источника не было: 12 дней

Сидов:  0  |  0 KB/s  ]   Личеров:  0  |  0 KB/s  ]

* - сиды/пиры с внешних источников

   
 
Автор Сообщение

ARI71 Пол:Муж

20-Ноя-2016 11:21

Страсти по Солоницыну


Год выпуска: 2006
Жанр: документальный, биография, кинематограф
Страна: Россия студия "Встреча"
Режиссер: Наталья Гугуева
В ролях: Николай Бурляев, Никита Михалков, Лариса Солоницына
Сюжет фильма:
В 1964 году неизвестный провинциальный актер Анатолий Солоницын приехал в Москву, пришел на съемки фильма о великом русском иконописце Андрее Рублеве и предложил режиссеру Андрею Тарковскому себя на главную роль. Худсовет был возмущен подобной самонадеянностью начинающего актера, а режиссер - заинтригован. Тарковский обратился к специалистам по древнерусскому искусству, разложив перед ними фотопробы многочисленных кандидатов на главную роль (среди них были Смоктуновский и Любшин), с вопросом: Какое лицо могло бы быть лицом Рублева? Все показали на Солоницына. При этом, как в действительности выглядел иконописец, неизвестно до сих пор.

Анато́лий (О́тто) Алексе́евич Солони́цын (30 августа 1934, Богородск, Горьковский край, РСФСР, СССР — 11 июня 1982, Москва, СССР) — советский актёр театра и кино. Заслуженный артист РСФСР.
Качество видео: TVRip

Продолжительность: 00:43:41
Формат: AVI
Видео: XviD, 640x480, 900 kbps
Аудио: русский, MP3 2.0, 128 kbps

Код:

Общее
Полное имя : D:\Страсти по Солоницыну.avi
Формат : AVI
Формат/Информация : Audio Video Interleave
Размер файла : 325 Мбайт
Продолжительность : 43 м.
Общий поток : 1040 Кбит/сек
Программа кодирования : MEncoder SVN-r29318(20090522-gcc4.3.3)
Библиотека кодирования : MPlayer

Видео
Идентификатор : 0
Формат : MPEG-4 Visual
Профиль формата : Advanced Simple@L5
Параметр BVOP формата : 2
Параметр QPel формата : Нет
Параметр GMC формата : Без точки перехода
Параметр матрицы формата : Default (H.263)
Идентификатор кодека : XVID
Идентификатор кодека/Подсказка : XviD
Продолжительность : 43 м.
Битрейт : 900 Кбит/сек
Ширина : 640 пикселей
Высота : 480 пикселей
Соотношение сторон : 4:3
Частота кадров : 25,000 кадров/сек
Цветовое пространство : YUV
Субдискретизация насыщенности : 4:2:0
Битовая глубина : 8 бит
Тип развёртки : Прогрессивная
Метод сжатия : С потерями
Бит/(Пиксели*Кадры) : 0.117
Размер потока : 281 Мбайт (87%)
Библиотека кодирования : XviD 1.2.1 (UTC 2008-12-04)

Аудио
Идентификатор : 1
Формат : MPEG Audio
Версия формата : Version 1
Профиль формата : Layer 3
Режим : Joint stereo
Расширение режима : MS Stereo
Идентификатор кодека : 55
Идентификатор кодека/Подсказка : MP3
Продолжительность : 43 м.
Вид битрейта : Постоянный
Битрейт : 128 Кбит/сек
Каналы : 2 канала
Частота : 44,1 КГц
Метод сжатия : С потерями
Задержка видео : 40 мс.
Размер потока : 40,0 Мбайт (12%)
Выравнивание : Соединение по промежуткам
Продолжительность промежутка : 26 мс. (0,65 видеокадр)
Время предзагрузки промежутка : 522 мс.
picpicpicpicpic
Для увеличения картинки щелкните мышкой по превью

Этот торрент недоступен для скачивания без регистрации, однако доступен по публичной magnet-ссылке (источники с публичных трекеров). Перед использованием ссылки прочтите, пожалуйста Пользовательское соглашение, а также как можно дольше оставайтесь на раздаче! Для того, чтобы скачать сам торрент-файл (который видит больше источников), а также для того, чтобы поблагодарить релизера, вам необходимо зарегистрироваться. Если регистрироваться лень - вы можете также попробовать скачать релиз по нашим партнерским ссылкам ниже.

[underverse.su].t74100.torrent
Трекер: Зарегистрирован   [ 20.11.2016 11:21 ]  

Статус: проверено (by ARI71 at 20.11.2016 11:24)
Поблагодарили: пока никто не поблагодарил...
Тип торрента: публичный - доступные источники с открытых трекеров: 
Размер: 325 MB (занимает 0,07 DVDR, для записи нужно 1 болванка DVDR/RW)
 
 
Похожие темы
Форум Тема Автор Торрент Отв. Посл. сооб.
xUSSR сериалы Страсти по Чапаю / Серии: 1-12 (12) (Сергей Щербин) [2012, драма, история, DVDRip] nemos
0 | 0

2 | 837

19

13.10.2013 17:43


Яндекс.Метрика powered by Sphinx


В Н И М А Н И Е
Сайт не распространяет и не хранит электронные версии произведений, а лишь бесплатно и без коммерческой выгоды (не требуя взамен платы,
SMS и т.д.) предоставляет доступ к создаваемому пользователями каталогу ссылок на торрент-файлы, которые содержат только списки хеш-сумм.
Убедительная просьба с жалобами обращаться напрямую к пользователю, разместившему торрент файл.

Вверх