Loading...
Error

(Pop, Soulful, Male Vocals) Иван Дорн - Co'n'Dorn (2012) [FLAC (Tracks+.Cue), Lossless]

Статистика раздачи
Размер:  414 MB   |    Зарегистрирован:  1 год 10 месяцев   |    Скачан:  5 раз

Полного источника не было: 2 месяца 21 день

Сидов:  0  |  0 KB/s  ]   Личеров:  0  |  0 KB/s  ]

* - сиды/пиры с внешних источников

   
 
Автор Сообщение

Бишеп Пол:Муж

20-Ноя-2016 05:05

Иван Дорн - Co'n'Dorn

Жанр: Pop, Soulful, Male Vocals
Год выпуска: 2012
Источник: CD
Производитель диска: Первое Музыкальное Издательство/Айкон - MT 001091-025-1
Аудиокодек: FLAC
Тип рипа: Tracks+.CUE
Битрейт аудио: lossless
Продолжительность: 01:01:12


Треклист:
01. Оуе Пахатам (1:24)
02. Бигуди (4:52)
03. Тем Более (2:46)
04. Ненавижу (3:40)
05. Школьное Окно (3:28)
06. Северное Сияние (4:48)
07. Так Сильно (3:58)
08. Кричу (2:46)
09. Стыцамэн (3:53)
10. СЖК (by Apollo Monkeys) (3:33)
11. Идолом (3:43)
12. ??? (8:04)
13. Город (3:41)
14. Стайлооо (1:31)
15. Стыцамикс (4:00)
16. Стыцамэн (Alexander Panayotov 'SkyOffice' rmx) (5:08)

Код:

Exact Audio Copy V1.0 beta 3 from 29. August 2011

EAC extraction logfile from 22. June 2012, 6:20

Иван Дорн / Co'n'Dorn

Used drive  : HL-DT-STDVDRAM GH22NS70   Adapter: 1  ID: 0

Read mode               : Secure
Utilize accurate stream : Yes
Defeat audio cache      : Yes
Make use of C2 pointers : No

Read offset correction                      : 667
Overread into Lead-In and Lead-Out          : No
Fill up missing offset samples with silence : Yes
Delete leading and trailing silent blocks   : No
Null samples used in CRC calculations       : Yes
Used interface                              : Native Win32 interface for Win NT & 2000
Gap handling                                : Appended to previous track

Used output format              : User Defined Encoder
Selected bitrate                : 1024 kBit/s
Quality                         : High
Add ID3 tag                     : No
Command line compressor         : C:\Program Files\Exact Audio Copy\Flac\flac.exe
Additional command line options : -V -8 -T "Genre=%genre%" -T "Artist=%artist%" -T "Title=%title%" -T "Album=%albumtitle%" -T "Date=%year%" -T "Tracknumber=%tracknr%" -T "Comment=%comment%" %source%

TOC of the extracted CD

     Track |   Start  |  Length  | Start sector | End sector
    ---------------------------------------------------------
        1  |  0:00.00 |  1:23.44 |         0    |     6268   
        2  |  1:23.44 |  4:51.43 |      6269    |    28136   
        3  |  6:15.12 |  2:45.62 |     28137    |    40573   
        4  |  9:00.74 |  3:40.00 |     40574    |    57073   
        5  | 12:40.74 |  3:27.54 |     57074    |    72652   
        6  | 16:08.53 |  4:47.67 |     72653    |    94244   
        7  | 20:56.45 |  3:58.02 |     94245    |   112096   
        8  | 24:54.47 |  2:45.41 |    112097    |   124512   
        9  | 27:40.13 |  3:52.59 |    124513    |   141971   
       10  | 31:32.72 |  3:33.20 |    141972    |   157966   
       11  | 35:06.17 |  3:43.08 |    157967    |   174699   
       12  | 38:49.25 |  8:03.59 |    174700    |   210983   
       13  | 46:53.09 |  3:41.06 |    210984    |   227564   
       14  | 50:34.15 |  1:30.40 |    227565    |   234354   
       15  | 52:04.55 |  3:59.65 |    234355    |   252344   
       16  | 56:04.45 |  5:07.65 |    252345    |   275434   

Track  1

     Filename I:\Bitt_Upload\Иван Дорн-[2012]-Co'n'Dorn_flac\01. Иван Дорн - Оуе Пахатам.wav

     Pre-gap length  0:00:02.00

     Peak level 97.0 %
     Extraction speed 0.9 X
     Track quality 100.0 %
     Test CRC 25346F3D
     Copy CRC 25346F3D
     Track not present in AccurateRip database
     Copy OK

Track  2

     Filename I:\Bitt_Upload\Иван Дорн-[2012]-Co'n'Dorn_flac\02. Иван Дорн - Бигуди.wav

     Pre-gap length  0:00:01.14

     Peak level 97.7 %
     Extraction speed 1.3 X
     Track quality 100.0 %
     Test CRC F0254C85
     Copy CRC F0254C85
     Track not present in AccurateRip database
     Copy OK

Track  3

     Filename I:\Bitt_Upload\Иван Дорн-[2012]-Co'n'Dorn_flac\03. Иван Дорн - Тем Более.wav

     Pre-gap length  0:00:00.30

     Peak level 96.6 %
     Extraction speed 1.3 X
     Track quality 100.0 %
     Test CRC 852209B4
     Copy CRC 852209B4
     Track not present in AccurateRip database
     Copy OK

Track  4

     Filename I:\Bitt_Upload\Иван Дорн-[2012]-Co'n'Dorn_flac\04. Иван Дорн - Ненавижу.wav

     Pre-gap length  0:00:01.19

     Peak level 94.3 %
     Extraction speed 1.5 X
     Track quality 100.0 %
     Test CRC D34EF1C1
     Copy CRC D34EF1C1
     Track not present in AccurateRip database
     Copy OK

Track  5

     Filename I:\Bitt_Upload\Иван Дорн-[2012]-Co'n'Dorn_flac\05. Иван Дорн - Школьное Окно.wav

     Pre-gap length  0:00:00.53

     Peak level 95.5 %
     Extraction speed 1.6 X
     Track quality 100.0 %
     Test CRC 89328D46
     Copy CRC 89328D46
     Track not present in AccurateRip database
     Copy OK

Track  6

     Filename I:\Bitt_Upload\Иван Дорн-[2012]-Co'n'Dorn_flac\06. Иван Дорн - Северное Сияние.wav

     Pre-gap length  0:00:01.34

     Peak level 97.7 %
     Extraction speed 1.8 X
     Track quality 100.0 %
     Test CRC 423B4C8B
     Copy CRC 423B4C8B
     Track not present in AccurateRip database
     Copy OK

Track  7

     Filename I:\Bitt_Upload\Иван Дорн-[2012]-Co'n'Dorn_flac\07. Иван Дорн - Так Сильно.wav

     Pre-gap length  0:00:01.35

     Peak level 97.7 %
     Extraction speed 1.6 X
     Track quality 99.9 %
     Test CRC 2FA56538
     Copy CRC 2FA56538
     Track not present in AccurateRip database
     Copy OK

Track  8

     Filename I:\Bitt_Upload\Иван Дорн-[2012]-Co'n'Dorn_flac\08. Иван Дорн - Кричу.wav

     Pre-gap length  0:00:01.02

     Peak level 91.1 %
     Extraction speed 1.8 X
     Track quality 100.0 %
     Test CRC C2AF6107
     Copy CRC C2AF6107
     Track not present in AccurateRip database
     Copy OK

Track  9

     Filename I:\Bitt_Upload\Иван Дорн-[2012]-Co'n'Dorn_flac\09. Иван Дорн - Стыцамэн.wav

     Pre-gap length  0:00:01.01

     Peak level 95.5 %
     Extraction speed 2.0 X
     Track quality 100.0 %
     Test CRC 8A8C7D53
     Copy CRC 8A8C7D53
     Track not present in AccurateRip database
     Copy OK

Track 10

     Filename I:\Bitt_Upload\Иван Дорн-[2012]-Co'n'Dorn_flac\10. Иван Дорн - СЖК (by Apollo Monkeys).wav

     Pre-gap length  0:00:00.65

     Peak level 97.7 %
     Extraction speed 2.1 X
     Track quality 100.0 %
     Test CRC B1E699B5
     Copy CRC B1E699B5
     Track not present in AccurateRip database
     Copy OK

Track 11

     Filename I:\Bitt_Upload\Иван Дорн-[2012]-Co'n'Dorn_flac\11. Иван Дорн - Идолом.wav

     Pre-gap length  0:00:01.01

     Peak level 97.7 %
     Extraction speed 1.9 X
     Track quality 99.9 %
     Test CRC 525AA6D8
     Copy CRC 525AA6D8
     Track not present in AccurateRip database
     Copy OK

Track 12

     Filename I:\Bitt_Upload\Иван Дорн-[2012]-Co'n'Dorn_flac\12. Иван Дорн -.wav

     Pre-gap length  0:00:00.66

     Peak level 95.5 %
     Extraction speed 2.5 X
     Track quality 100.0 %
     Test CRC 39494933
     Copy CRC 39494933
     Track not present in AccurateRip database
     Copy OK

Track 13

     Filename I:\Bitt_Upload\Иван Дорн-[2012]-Co'n'Dorn_flac\13. Иван Дорн - Город.wav

     Pre-gap length  0:00:01.43

     Peak level 97.2 %
     Extraction speed 2.1 X
     Track quality 99.9 %
     Test CRC E5C7F5F8
     Copy CRC E5C7F5F8
     Track not present in AccurateRip database
     Copy OK

Track 14

     Filename I:\Bitt_Upload\Иван Дорн-[2012]-Co'n'Dorn_flac\14. Иван Дорн - Стайлооо.wav

     Pre-gap length  0:00:00.69

     Peak level 91.2 %
     Extraction speed 1.9 X
     Track quality 100.0 %
     Test CRC 7F6A5ECF
     Copy CRC 7F6A5ECF
     Track not present in AccurateRip database
     Copy OK

Track 15

     Filename I:\Bitt_Upload\Иван Дорн-[2012]-Co'n'Dorn_flac\15. Иван Дорн - Стыцамикс.wav

     Pre-gap length  0:00:01.44

     Peak level 95.5 %
     Extraction speed 2.5 X
     Track quality 100.0 %
     Test CRC 770BD65B
     Copy CRC 770BD65B
     Track not present in AccurateRip database
     Copy OK

Track 16

     Filename I:\Bitt_Upload\Иван Дорн-[2012]-Co'n'Dorn_flac\16. Иван Дорн - Стыцамэн (Alexander Panayotov 'SkyOffice' rmx).wav

     Pre-gap length  0:00:01.49

     Peak level 93.3 %
     Extraction speed 2.7 X
     Track quality 100.0 %
     Test CRC 38F1F3E4
     Copy CRC 38F1F3E4
     Track not present in AccurateRip database
     Copy OK

None of the tracks are present in the AccurateRip database

No errors occurred

End of status report

==== Log checksum 13E53E4C18D6BBBCDA0D313933774F89FBD7666723415D0DB0892C318E90D054 ====

Код:

REM GENRE Pop/Funk
REM DATE 2012
REM DISCID E10E5810
REM COMMENT "ExactAudioCopy v1.0b3"
PERFORMER "Иван Дорн"
TITLE "Co'n'Dorn"
FILE "01. Иван Дорн - Оуе Пахатам.flac" WAVE
  TRACK 01 AUDIO
    TITLE "Оуе Пахатам"
    PERFORMER "Иван Дорн"
    INDEX 01 00:00:00
  TRACK 02 AUDIO
    TITLE "Бигуди"
    PERFORMER "Иван Дорн"
    INDEX 00 01:22:30
FILE "02. Иван Дорн - Бигуди.flac" WAVE
    INDEX 01 00:00:00
  TRACK 03 AUDIO
    TITLE "Тем Более"
    PERFORMER "Иван Дорн"
    INDEX 00 04:51:13
FILE "03. Иван Дорн - Тем Более.flac" WAVE
    INDEX 01 00:00:00
  TRACK 04 AUDIO
    TITLE "Ненавижу"
    PERFORMER "Иван Дорн"
    INDEX 00 02:44:43
FILE "04. Иван Дорн - Ненавижу.flac" WAVE
    INDEX 01 00:00:00
  TRACK 05 AUDIO
    TITLE "Школьное Окно"
    PERFORMER "Иван Дорн"
    INDEX 00 03:39:22
FILE "05. Иван Дорн - Школьное Окно.flac" WAVE
    INDEX 01 00:00:00
  TRACK 06 AUDIO
    TITLE "Северное Сияние"
    PERFORMER "Иван Дорн"
    INDEX 00 03:26:20
FILE "06. Иван Дорн - Северное Сияние.flac" WAVE
    INDEX 01 00:00:00
  TRACK 07 AUDIO
    TITLE "Так Сильно"
    PERFORMER "Иван Дорн"
    INDEX 00 04:46:32
FILE "07. Иван Дорн - Так Сильно.flac" WAVE
    INDEX 01 00:00:00
  TRACK 08 AUDIO
    TITLE "Кричу"
    PERFORMER "Иван Дорн"
    INDEX 00 03:57:00
FILE "08. Иван Дорн - Кричу.flac" WAVE
    INDEX 01 00:00:00
  TRACK 09 AUDIO
    TITLE "Стыцамэн"
    PERFORMER "Иван Дорн"
    INDEX 00 02:44:40
FILE "09. Иван Дорн - Стыцамэн.flac" WAVE
    INDEX 01 00:00:00
  TRACK 10 AUDIO
    TITLE "СЖК (by Apollo Monkeys)"
    PERFORMER "Иван Дорн"
    INDEX 00 03:51:69
FILE "10. Иван Дорн - СЖК (by Apollo Monkeys).flac" WAVE
    INDEX 01 00:00:00
  TRACK 11 AUDIO
    TITLE "Идолом"
    PERFORMER "Иван Дорн"
    INDEX 00 03:32:19
FILE "11. Иван Дорн - Идолом.flac" WAVE
    INDEX 01 00:00:00
  TRACK 12 AUDIO
    TITLE "???"
    PERFORMER "Иван Дорн"
    INDEX 00 03:42:17
FILE "12. Иван Дорн - ---.flac" WAVE
    INDEX 01 00:00:00
  TRACK 13 AUDIO
    TITLE "Город"
    PERFORMER "Иван Дорн"
    INDEX 00 08:02:16
FILE "13. Иван Дорн - Город.flac" WAVE
    INDEX 01 00:00:00
  TRACK 14 AUDIO
    TITLE "Стайлооо"
    PERFORMER "Иван Дорн"
    INDEX 00 03:40:12
FILE "14. Иван Дорн - Стайлооо.flac" WAVE
    INDEX 01 00:00:00
  TRACK 15 AUDIO
    TITLE "Стыцамикс"
    PERFORMER "Иван Дорн"
    INDEX 00 01:28:71
FILE "15. Иван Дорн - Стыцамикс.flac" WAVE
    INDEX 01 00:00:00
  TRACK 16 AUDIO
    TITLE "Стыцамэн (Alexander Panayotov 'SkyOffice' rmx)"
    PERFORMER "Иван Дорн"
    INDEX 00 03:58:16
FILE "16. Иван Дорн - Стыцамэн (Alexander Panayotov 'SkyOffice' rmx).flac" WAVE
    INDEX 01 00:00:00

Этот торрент недоступен для скачивания без регистрации, однако доступен по публичной magnet-ссылке (источники с публичных трекеров). Перед использованием ссылки прочтите, пожалуйста Пользовательское соглашение, а также как можно дольше оставайтесь на раздаче! Для того, чтобы скачать сам торрент-файл (который видит больше источников), а также для того, чтобы поблагодарить релизера, вам необходимо зарегистрироваться. Если регистрироваться лень - вы можете также попробовать скачать релиз по нашим партнерским ссылкам ниже. Кроме того, зарегистрированным пользователям не показывается всплывающая реклама при скачивании.

[underverse.su].t74078.torrent
Трекер: Зарегистрирован   [ 20.11.2016 05:05 ]  

Статус: проверено (by Бишеп at 20.11.2016 05:06)
Поблагодарили: пока никто не поблагодарил...
Тип торрента: публичный - доступные источники с открытых трекеров: 
Размер: 414 MB (занимает 0,09 DVDR, для записи нужно 1 болванка DVDR/RW)
 
 
Похожие темы
Форум Тема Автор Торрент Отв. Посл. сооб.
Зарубежная Pop Музыка (Pop, Soul, Holiday) Leona Lewis - Christmas, With Love (2013) [MP3, 320 kbps] 90ytr90
0 | 0

0 | 613

1

12.11.2016 10:51

Зарубежная Pop Музыка (Pop, Soul, Funky, Blues) Sade - Полная коллекция хитов (2013) [MP3, 320 Kbps CBR] Чертёнок
0 | 0

2 | 1400

23

30.03.2014 16:23

Зарубежная Pop Музыка (Pop, Soul, Jazz) Ann Sophie - Silver Into Gold (2015) [MP3, 320 kbps] 90ytr90
2 | 0

0 | 516

1

08.11.2016 14:33

Зарубежная Pop Музыка (Pop, Soul) Simply Red - Big Love (2015) [MP3, 320 kbps] 90ytr90
6 | 1

0 | 725

1

08.11.2016 12:57

Зарубежная Pop Музыка (Pop, Soul) Tori Kelly - Unbreakable Smile [Target Edition] (2015) [MP3, 320 kbps] 90ytr90
0 | 0

0 | 509

1

08.11.2016 07:18

Зарубежная Pop Музыка (Pop, Soul, Funk, Alternative) Gin Wigmore - Blood To Bone (2015) [MP3, 320 kbps] 90ytr90
9 | 0

0 | 559

1

08.11.2016 07:12

Зарубежная Pop Музыка (Pop, Soul, R&B) Leona Lewis - I Am [Japanese Edition] (2015) [MP3, 320 kbps] 90ytr90
3 | 0

0 | 600

1

07.11.2016 18:03

Зарубежная Pop Музыка (Pop, Soul) Lukas Graham - Lukas Graham [Blue Album] (2015) [MP3, 320 kbps] 90ytr90
5 | 6

0 | 972

2

07.11.2016 17:22

Зарубежная Pop Музыка (Pop, Soul) Seinabo Sey - Pretend (2015) [MP3, 320 kbps] 90ytr90
10 | 1

0 | 689

2

07.11.2016 15:12

Зарубежная Pop Музыка (Pop, Soul) Seal - 7 (2015) [MP3, 320 kbps] 90ytr90
10 | 0

0 | 522

1

07.11.2016 14:45


Яндекс.Метрика powered by Sphinx


В Н И М А Н И Е
Сайт не распространяет и не хранит электронные версии произведений, а лишь бесплатно и без коммерческой выгоды (не требуя взамен платы,
SMS и т.д.) предоставляет доступ к создаваемому пользователями каталогу ссылок на торрент-файлы, которые содержат только списки хеш-сумм.
Убедительная просьба с жалобами обращаться напрямую к пользователю, разместившему торрент файл.

Вверх