Loading...
Error

(Pop) Натали - О, Боже, какой мужчина! (2016) [FLAC (Tracks+.Cue), Lossless]

Статистика раздачи
Размер:  469 MB   |    Зарегистрирован:  1 год 7 месяцев   |    Скачан:  17 раз

Полного источника не было: 14 часов

Сидов:  0  |  0 KB/s  ]   Личеров:  0  |  0 KB/s  ]

* - сиды/пиры с внешних источников

   
 
Автор Сообщение

Бишеп Пол:Муж

20-Ноя-2016 04:48

Натали - О, Боже, какой мужчина!

Жанр: Pop
Год выпуска: 2016
Источник: CD
Производитель диска: Digital Project - DP-14022016-CD
Аудиокодек: FLAC
Тип рипа: Tracks+.CUE
Битрейт аудио: lossless
Продолжительность: 00:53:13


Треклист:
01. Володя (3:24)
02. Замуж за лето (4:05)
03. Платье на бретелях (3:51)
04. Шахерезада (3:20)
05. Николай (дуэт с Николаем Басковым) (3:46)
06. Новогодняя (3:34)
07. Ноты (3:44)
08. Простая история любви (3:43)
09. Давай со мной за звездами (3:16)
10. Собственный рай (3:02)
11. О, Боже, какой мужчина! (3:25)
12. Ветер с моря дул (версия 2015) (3:51)
13. Звезды падали с неба (версия 2015) (3:32)
14. Прекрасное далеко (дуэт с гр. Непоседы) (3:14)
15. Ты такой (дуэт с MC DONI) (3:27)

Код:

Exact Audio Copy V1.1 from 23. June 2015

EAC extraction logfile from 5. July 2016, 19:49

Натали / О, Боже, какой мужчина!

Used drive  : ATAPI   iHAS124   E   Adapter: 1  ID: 0

Read mode               : Secure
Utilize accurate stream : Yes
Defeat audio cache      : Yes
Make use of C2 pointers : No

Read offset correction                      : 6
Overread into Lead-In and Lead-Out          : No
Fill up missing offset samples with silence : Yes
Delete leading and trailing silent blocks   : No
Null samples used in CRC calculations       : Yes
Used interface                              : Native Win32 interface for Win NT & 2000
Gap handling                                : Appended to previous track

Used output format              : User Defined Encoder
Selected bitrate                : 896 kBit/s
Quality                         : High
Add ID3 tag                     : No
Command line compressor         : C:\Program Files (x86)\Exact Audio Copy\Flac\flac.exe
Additional command line options : -V -8 -T "Genre=%genre%" -T "Artist=%artist%" -T "Title=%title%" -T "Album=%albumtitle%" -T "Totaldiscs=%totalcds%" -T "Discnumber=%cdnumber%" -T "Date=%year%" -T "Tracknumber=%tracknr%" -T "Composer=%composer%" -T "Comment=%comment%" %source%

TOC of the extracted CD

     Track |   Start  |  Length  | Start sector | End sector
    ---------------------------------------------------------
        1  |  0:00.00 |  3:23.72 |         0    |    15296   
        2  |  3:23.72 |  4:05.11 |     15297    |    33682   
        3  |  7:29.08 |  3:50.47 |     33683    |    50979   
        4  | 11:19.55 |  3:20.35 |     50980    |    66014   
        5  | 14:40.15 |  3:46.10 |     66015    |    82974   
        6  | 18:26.25 |  3:33.51 |     82975    |    99000   
        7  | 22:00.01 |  3:43.73 |     99001    |   115798   
        8  | 25:43.74 |  3:43.02 |    115799    |   132525   
        9  | 29:27.01 |  3:15.60 |    132526    |   147210   
       10  | 32:42.61 |  3:01.48 |    147211    |   160833   
       11  | 35:44.34 |  3:24.43 |    160834    |   176176   
       12  | 39:09.02 |  3:50.74 |    176177    |   193500   
       13  | 43:00.01 |  3:31.74 |    193501    |   209399   
       14  | 46:32.00 |  3:13.38 |    209400    |   223912   
       15  | 49:45.38 |  3:27.33 |    223913    |   239470   

Track  1

     Filename D:\CDrip\01. Володя.wav

     Pre-gap length  0:00:02.00

     Peak level 100.0 %
     Extraction speed 2.1 X
     Track quality 100.0 %
     Test CRC D82A564D
     Copy CRC D82A564D
     Track not present in AccurateRip database
     Copy OK

Track  2

     Filename D:\CDrip\02. Замуж за лето.wav

     Pre-gap length  0:00:01.44

     Peak level 99.5 %
     Extraction speed 2.3 X
     Track quality 100.0 %
     Test CRC BCD06949
     Copy CRC BCD06949
     Track not present in AccurateRip database
     Copy OK

Track  3

     Filename D:\CDrip\03. Платье на бретелях.wav

     Pre-gap length  0:00:01.44

     Peak level 100.0 %
     Extraction speed 2.5 X
     Track quality 100.0 %
     Test CRC 4735D82D
     Copy CRC 4735D82D
     Track not present in AccurateRip database
     Copy OK

Track  4

     Filename D:\CDrip\04. Шахерезада.wav

     Pre-gap length  0:00:01.44

     Peak level 99.6 %
     Extraction speed 2.6 X
     Track quality 100.0 %
     Test CRC DBA7653A
     Copy CRC DBA7653A
     Track not present in AccurateRip database
     Copy OK

Track  5

     Filename D:\CDrip\05. Николай (дуэт с Николаем Басковым).wav

     Pre-gap length  0:00:01.44

     Peak level 99.6 %
     Extraction speed 2.7 X
     Track quality 100.0 %
     Test CRC 2BBE5028
     Copy CRC 2BBE5028
     Track not present in AccurateRip database
     Copy OK

Track  6

     Filename D:\CDrip\06. Новогодняя.wav

     Pre-gap length  0:00:01.44

     Peak level 99.5 %
     Extraction speed 2.9 X
     Track quality 100.0 %
     Test CRC C91B9A57
     Copy CRC C91B9A57
     Track not present in AccurateRip database
     Copy OK

Track  7

     Filename D:\CDrip\07. Ноты.wav

     Pre-gap length  0:00:01.44

     Peak level 91.2 %
     Extraction speed 3.0 X
     Track quality 100.0 %
     Test CRC 1488BBA1
     Copy CRC 1488BBA1
     Track not present in AccurateRip database
     Copy OK

Track  8

     Filename D:\CDrip\08. Простая история любви.wav

     Pre-gap length  0:00:01.44

     Peak level 99.8 %
     Extraction speed 3.2 X
     Track quality 100.0 %
     Test CRC C9DC39DF
     Copy CRC C9DC39DF
     Track not present in AccurateRip database
     Copy OK

Track  9

     Filename D:\CDrip\09. Давай со мной за звездами.wav

     Pre-gap length  0:00:01.44

     Peak level 100.0 %
     Extraction speed 3.2 X
     Track quality 100.0 %
     Test CRC 288E7B4D
     Copy CRC 288E7B4D
     Track not present in AccurateRip database
     Copy OK

Track 10

     Filename D:\CDrip\10. Собственный рай.wav

     Pre-gap length  0:00:01.44

     Peak level 100.0 %
     Extraction speed 3.3 X
     Track quality 100.0 %
     Test CRC 3CB7CDD9
     Copy CRC 3CB7CDD9
     Track not present in AccurateRip database
     Copy OK

Track 11

     Filename D:\CDrip\11. О, Боже, какой мужчина!.wav

     Pre-gap length  0:00:01.44

     Peak level 99.9 %
     Extraction speed 3.4 X
     Track quality 100.0 %
     Test CRC C0B6D0CB
     Copy CRC C0B6D0CB
     Track not present in AccurateRip database
     Copy OK

Track 12

     Filename D:\CDrip\12. Ветер с моря дул (версия 2015).wav

     Pre-gap length  0:00:01.44

     Peak level 98.8 %
     Extraction speed 3.6 X
     Track quality 100.0 %
     Test CRC C5283007
     Copy CRC C5283007
     Track not present in AccurateRip database
     Copy OK

Track 13

     Filename D:\CDrip\13. Звезды падали с неба (версия 2015).wav

     Pre-gap length  0:00:01.44

     Peak level 99.3 %
     Extraction speed 3.6 X
     Track quality 100.0 %
     Test CRC A03CB48C
     Copy CRC A03CB48C
     Track not present in AccurateRip database
     Copy OK

Track 14

     Filename D:\CDrip\14. Прекрасное далеко (дуэт с гр. Непоседы).wav

     Pre-gap length  0:00:01.44

     Peak level 98.8 %
     Extraction speed 3.2 X
     Track quality 99.9 %
     Test CRC 62EBCCC8
     Copy CRC 62EBCCC8
     Track not present in AccurateRip database
     Copy OK

Track 15

     Filename D:\CDrip\15. Ты такой (дуэт с MC DONI).wav

     Pre-gap length  0:00:01.44

     Peak level 98.8 %
     Extraction speed 3.8 X
     Track quality 100.0 %
     Test CRC 0257BEDF
     Copy CRC 0257BEDF
     Track not present in AccurateRip database
     Copy OK

None of the tracks are present in the AccurateRip database

No errors occurred

End of status report

---- CUETools DB Plugin V2.1.6

[CTDB TOCID: ihTL.2uO3Ns_8xJHRK.tb0BIVdc-] found
Submit result: already submitted
Track | CTDB Status
  1   | (1/1) Accurately ripped
  2   | (1/1) Accurately ripped
  3   | (1/1) Accurately ripped
  4   | (1/1) Accurately ripped
  5   | (1/1) Accurately ripped
  6   | (1/1) Accurately ripped
  7   | (1/1) Accurately ripped
  8   | (1/1) Accurately ripped
  9   | (1/1) Accurately ripped
 10   | (1/1) Accurately ripped
 11   | (1/1) Accurately ripped
 12   | (1/1) Accurately ripped
 13   | (1/1) Accurately ripped
 14   | (1/1) Accurately ripped
 15   | (1/1) Accurately ripped

==== Log checksum 9CF76AEE7D0611B5714EEC629BB907EF0F484ACE001BADFE3891741D7475E257 ====

Код:

REM GENRE Europop
REM DATE 2016
REM DISCID D90C780F
REM COMMENT "ExactAudioCopy v1.1"
PERFORMER "Натали"
TITLE "О, Боже, какой мужчина!"
FILE "01. Володя.wav" WAVE
  TRACK 01 AUDIO
    TITLE "Володя"
    PERFORMER "Натали"
    INDEX 01 00:00:00
  TRACK 02 AUDIO
    TITLE "Замуж за лето"
    PERFORMER "Натали"
    INDEX 00 03:22:28
FILE "02. Замуж за лето.wav" WAVE
    INDEX 01 00:00:00
  TRACK 03 AUDIO
    TITLE "Платье на бретелях"
    PERFORMER "Натали"
    INDEX 00 04:03:42
FILE "03. Платье на бретелях.wav" WAVE
    INDEX 01 00:00:00
  TRACK 04 AUDIO
    TITLE "Шахерезада"
    PERFORMER "Натали"
    INDEX 00 03:49:03
FILE "04. Шахерезада.wav" WAVE
    INDEX 01 00:00:00
  TRACK 05 AUDIO
    TITLE "Николай (дуэт с Николаем Басковым)"
    PERFORMER "Натали"
    INDEX 00 03:18:66
FILE "05. Николай (дуэт с Николаем Басковым).wav" WAVE
    INDEX 01 00:00:00
  TRACK 06 AUDIO
    TITLE "Новогодняя"
    PERFORMER "Натали"
    INDEX 00 03:44:41
FILE "06. Новогодняя.wav" WAVE
    INDEX 01 00:00:00
  TRACK 07 AUDIO
    TITLE "Ноты"
    PERFORMER "Натали"
    INDEX 00 03:32:07
FILE "07. Ноты.wav" WAVE
    INDEX 01 00:00:00
  TRACK 08 AUDIO
    TITLE "Простая история любви"
    PERFORMER "Натали"
    INDEX 00 03:42:29
FILE "08. Простая история любви.wav" WAVE
    INDEX 01 00:00:00
  TRACK 09 AUDIO
    TITLE "Давай со мной за звездами"
    PERFORMER "Натали"
    INDEX 00 03:41:33
FILE "09. Давай со мной за звездами.wav" WAVE
    INDEX 01 00:00:00
  TRACK 10 AUDIO
    TITLE "Собственный рай"
    PERFORMER "Натали"
    INDEX 00 03:14:16
FILE "10. Собственный рай.wav" WAVE
    INDEX 01 00:00:00
  TRACK 11 AUDIO
    TITLE "О, Боже, какой мужчина!"
    PERFORMER "Натали"
    INDEX 00 03:00:04
FILE "11. О, Боже, какой мужчина!.wav" WAVE
    INDEX 01 00:00:00
  TRACK 12 AUDIO
    TITLE "Ветер с моря дул (версия 2015)"
    PERFORMER "Натали"
    INDEX 00 03:22:74
FILE "12. Ветер с моря дул (версия 2015).wav" WAVE
    INDEX 01 00:00:00
  TRACK 13 AUDIO
    TITLE "Звезды падали с неба (версия 2015)"
    PERFORMER "Натали"
    INDEX 00 03:49:30
FILE "13. Звезды падали с неба (версия 2015).wav" WAVE
    INDEX 01 00:00:00
  TRACK 14 AUDIO
    TITLE "Прекрасное далеко (дуэт с гр. Непоседы)"
    PERFORMER "Натали"
    INDEX 00 03:30:30
FILE "14. Прекрасное далеко (дуэт с гр. Непоседы).wav" WAVE
    INDEX 01 00:00:00
  TRACK 15 AUDIO
    TITLE "Ты такой (дуэт с MC DONI)"
    PERFORMER "Натали"
    INDEX 00 03:11:69
FILE "15. Ты такой (дуэт с MC DONI).wav" WAVE
    INDEX 01 00:00:00

Код:

AUDIOCHECKER v2.0 beta (build 457) - by Dester - opdester@freemail.hu
~~~~~~~~~~~~~~~~~~~~~~~~~~~~~~~~~~
-=== DO NOT EDIT THIS FILE! ===-

Path: ...\Натали - О, Боже, какой мужчина! (2016) [DP-14022016-CD]

01 -=- 01. Володя.flac -=- CDDA (100%)
02 -=- 02. Замуж за лето.flac -=- CDDA (100%)
03 -=- 03. Платье на бретелях.flac -=- CDDA (100%)
04 -=- 04. Шахерезада.flac -=- CDDA (100%)
05 -=- 05. Николай (дуэт с Николаем Басковым).flac -=- CDDA (100%)
06 -=- 06. Новогодняя.flac -=- CDDA (100%)
07 -=- 07. Ноты.flac -=- CDDA (100%)
08 -=- 08. Простая история любви.flac -=- CDDA (100%)
09 -=- 09. Давай со мной за звездами.flac -=- CDDA (100%)
10 -=- 10. Собственный рай.flac -=- CDDA (100%)
11 -=- 11. О, Боже, какой мужчина!.flac -=- CDDA (100%)
12 -=- 12. Ветер с моря дул (версия 2015).flac -=- CDDA (100%)
13 -=- 13. Звезды падали с неба (версия 2015).flac -=- CDDA (100%)
14 -=- 14. Прекрасное далеко (дуэт с гр. Непоседы).flac -=- CDDA (100%)
15 -=- 15. Ты такой (дуэт с MC DONI).flac -=- CDDA (100%)

Summary 100,00% CDDA

26974100

Этот торрент недоступен для скачивания без регистрации, однако доступен по публичной magnet-ссылке (источники с публичных трекеров). Перед использованием ссылки прочтите, пожалуйста Пользовательское соглашение, а также как можно дольше оставайтесь на раздаче! Для того, чтобы скачать сам торрент-файл (который видит больше источников), а также для того, чтобы поблагодарить релизера, вам необходимо зарегистрироваться. Если регистрироваться лень - вы можете также попробовать скачать релиз по нашим партнерским ссылкам ниже. Кроме того, зарегистрированным пользователям не показывается всплывающая реклама при скачивании.

[underverse.su].t74077.torrent
Трекер: Зарегистрирован   [ 20.11.2016 04:48 ]  

Статус: проверено (by Бишеп at 20.11.2016 04:49)
Поблагодарили: пока никто не поблагодарил...
Тип торрента: публичный - доступные источники с открытых трекеров: 
Размер: 469 MB (занимает 0,1 DVDR, для записи нужно 1 болванка DVDR/RW)
 
 
Похожие темы
Форум Тема Автор Торрент Отв. Посл. сооб.
Отечественная Поп Музыка (Lossless) (Pop) Наташа Королёва - Конфетти (1996) [FLAC (Image+.CUE), Lossless] Бишеп
0 | 0

0 | 1793

13

07.04.2013 09:21

Отечественная Поп Музыка (Lossless) (Pop) Наташа Королёва - Конфетти (Promo-single) (1994) [APE (Image+.CUE), Lossless] Бишеп
1 | 0

0 | 825

7

27.04.2013 10:30

Отечественная Поп Музыка (Lossless) (Pop) Натали - Ветер С Моря (1998) [FLAC (Tracks+.CUE), Lossless] Бишеп
0 | 0

0 | 883

3

28.01.2017 15:40

Архив (популярная музыка) (Pop) Наталья Ветлицкая - Дискография (1993-2004) [MP3, VBR 256-320 kbps] Алексей 25
0 | 0

1 | 2309

0

16.06.2011 08:09

Архив (популярная музыка) (Pop) Наталия Гулькина - Сама по себе (2012) [MP3, 320 kbps CBR] Jimmy
0 | 0

1 | 1214

23

31.01.2018 19:43

Бишеп Пол:Муж

20-Ноя-2016 04:52


Яндекс.Метрика powered by Sphinx


В Н И М А Н И Е
Сайт не распространяет и не хранит электронные версии произведений, а лишь бесплатно и без коммерческой выгоды (не требуя взамен платы,
SMS и т.д.) предоставляет доступ к создаваемому пользователями каталогу ссылок на торрент-файлы, которые содержат только списки хеш-сумм.
Убедительная просьба с жалобами обращаться напрямую к пользователю, разместившему торрент файл.

Вверх