Loading...
Error

Кочевники. Гроза над Европой / Storm Over Europe – The Wandering Tribes (4 серии из 4) / (Кристиан Фейерабенд, Нина Косхофер) [2002 г., документальный, история, SatRip] DVO (Видеофильм ТВ)

Статистика раздачи
Размер:  2,45 GB   |    Зарегистрирован:  13 дней   |    Скачан:  1 раз

Полного источника не было: 4 часа

Сидов:  0  |  0 KB/s  ]   Личеров:  0  |  0 KB/s  ]

* - сиды/пиры с внешних источников

   
 
Автор Сообщение

ARI71 Пол:Муж

19-Ноя-2016 17:37

Кочевники. Гроза над Европой / Storm Over Europe – The Wandering Tribes (4 серии из 4)


Год выпуска: 2002
Жанр: документальный, история
Страна: Германия ZDF
Режиссер: Кристиан Фейерабенд, Нина Косхофер
Сюжет фильма:
Еще в 113 г. на северо-восточных подступах к Италии появился новый враг. Это была большая группа племен, главную массу которых составляли кимвры, племя, вероятно, германского происхождения, вышедшее с берегов Балтийского моря. Но эта группа включала и кельтские элементы. Огромная орда двигалась вместе с женщинами и детьми, со всей своей утварью и скотом.


Качество видео: SatRip

Продолжительность: 4 х ~00:51:55
Формат: AVI
Видео: XviD, 704x400, ~1498 kbps
Аудио: русский, двухголосый [профессиональный, Видеофильм ТВ], AC3 2.0, ~192.00 kbps

Автор рипа: skorpionN

Код:

Общее
Полное имя : D:\Storm Over Europe_The Wandering Tribes\01_Cimbrians and Teutons.avi
Формат : AVI
Формат/Информация : Audio Video Interleave
Размер файла : 631 Мбайт
Продолжительность : 51 м.
Общий поток : 1697 Кбит/сек
Программа кодирования : TMPGEnc Video Mastering Works 5 Version. 5.0.6.38
Библиотека кодирования : TMPGEnc Video Mastering Works 5 Version. 5.0.6.38

Видео
Идентификатор : 0
Формат : MPEG-4 Visual
Профиль формата : Advanced Simple@L5
Параметр BVOP формата : 2
Параметр QPel формата : Нет
Параметр GMC формата : Без точки перехода
Параметр матрицы формата : Default (H.263)
Режим смешивания : Сжатый битовый поток
Идентификатор кодека : XVID
Идентификатор кодека/Подсказка : XviD
Продолжительность : 51 м.
Битрейт : 1498 Кбит/сек
Ширина : 704 пикселя
Высота : 400 пикселей
Соотношение сторон : 16:9
Частота кадров : 25,000 кадров/сек
Цветовое пространство : YUV
Субдискретизация насыщенности : 4:2:0
Битовая глубина : 8 бит
Тип развёртки : Прогрессивная
Метод сжатия : С потерями
Бит/(Пиксели*Кадры) : 0.213
Размер потока : 557 Мбайт (88%)
Библиотека кодирования : XviD 73

Аудио
Идентификатор : 1
Формат : AC-3
Формат/Информация : Audio Coding 3
Расширение режима : CM (complete main)
Параметр Endianness формата : Big
Идентификатор кодека : 2000
Продолжительность : 51 м.
Вид битрейта : Постоянный
Битрейт : 192 Кбит/сек
Каналы : 2 канала
Расположение каналов : Front: L R
Частота : 48,0 КГц
Частота кадров : 31,250 кадров/сек (1536 spf)
Метод сжатия : С потерями
Размер потока : 71,3 Мбайт (11%)
Выравнивание : Соединение по промежуткам
Продолжительность промежутка : 240 мс. (6,00 видеокадров)
Время предзагрузки промежутка : 224 мс.
01. Кимвры и тевтоны / Cimbrians and Teutons
В первой серии мы узнаем как жил этот древний народ и что послужило причиной переселения.

02. Сага о готах / The Saga of the Goths
Через 200 лет после переселения кимвров и тевтонов готы отправились на поиски лучших мест для поселений из Скандинавии в северную Польшу, а затем южнее, к Черному морю. Переселение готов привело к развалу античного мира.

03. Падение Рима / The Fall of Rome
С одними германскими племенами Римская империя заключала договоры о дружбе и союзе. С другими вела войны. Она принимала некоторые племена на службу и селила их на своих границах, чтобы с их помощью отбивать натиск нападавших на нее народов. С конца IV века от набегов на империю Германцы перешли к завоеваниям.

04. Наследники Рима / The Heirs Of Rome
В конце Великого переселения народов германские империи вестготов, остготов, франков и англосаксов и империи к востоку от Дуная стали основой будущих государств Европы. Великое переселение началось задолго до Рождества Христова, с миграцией северных германских племен. В поисках нового дома они прошли половину континента, а к концу этого путешествия они сами стали сооснователями Европы и оставили свой след в истории христианского западного мира.
picpicpicpicpic
Для увеличения картинки щелкните мышкой по превью

Этот торрент недоступен для скачивания без регистрации, однако доступен по публичной magnet-ссылке (источники с публичных трекеров). Перед использованием ссылки прочтите, пожалуйста Пользовательское соглашение, а также как можно дольше оставайтесь на раздаче! Для того, чтобы скачать сам торрент-файл (который видит больше источников), а также для того, чтобы поблагодарить релизера, вам необходимо зарегистрироваться. Если регистрироваться лень - вы можете также попробовать скачать релиз по нашим партнерским ссылкам ниже.

[underverse.su].t74499.torrent
Трекер: Зарегистрирован   [ 27.11.2016 09:04 ]  

Статус: проверено (by ARI71 at 27.11.2016 09:04)
Поблагодарили: пока никто не поблагодарил...
Тип торрента: публичный - доступные источники с открытых трекеров: 
Размер: 2,45 GB (занимает 0,56 DVDR, для записи нужно 1 болванка DVDR/RW)
 
 


Последний раз редактировалось: ARI71 (27.11.2016 09:04), всего редактировалось 1 раз

ARI71 Пол:Муж

19-Ноя-2016 17:37

Приятного всем просмотра!

Голосуй за трекер!!



ARI71 Пол:Муж

27-Ноя-2016 09:23

Добавлена заключительная серия: 04. Наследники Рима / The Heirs Of Rome

    Обновление раздачи завершено!

Яндекс.Метрика powered by Sphinx


В Н И М А Н И Е
Сайт не распространяет и не хранит электронные версии произведений, а лишь бесплатно и без коммерческой выгоды (не требуя взамен платы,
SMS и т.д.) предоставляет доступ к создаваемому пользователями каталогу ссылок на торрент-файлы, которые содержат только списки хеш-сумм.
Убедительная просьба с жалобами обращаться напрямую к пользователю, разместившему торрент файл.

Вверх