Loading...
Error

Лариса Голубкина. Я тебя никогда не забуду (Руслан Трещёв) [2010 г., документальный, биография, театр, кинематограф, SatRip]

Статистика раздачи
Размер:  580 MB   |    Зарегистрирован:  14 дней   |    Скачан:  1 раз

Полного источника не было: 14 дней

Сидов:  0  |  0 KB/s  ]   Личеров:  0  |  0 KB/s  ]

* - сиды/пиры с внешних источников

   
 
Автор Сообщение

ARI71 Пол:Муж

19-Ноя-2016 13:49

Лариса Голубкина. Я тебя никогда не забуду


Год выпуска: 2010
Жанр: документальный, биография, театр, кинематограф
Страна: Россия Продюсерский центр "Хорошо Продакшн"
Режиссер: Руслан Трещёв
В ролях: Лариса Голубкина, Александр Ширвиндт, Эльдар Рязанов, Мария Аронова, Вера Алентова
Сюжет фильма:
"Природа способна на чудо, и в данном случае она сотворила чудо местного значения. Она создала Ларису Голубкину, которая, как влитая годилась нам на главную роль" - вспоминает Эльдар Рязанов. А сама Лариса Ивановна, считает что "жива" только благодаря этой роли, роли Шуры Азаровой в легендарной "Гусарской балладе". Возможно, это и была самая яркая роль в жизни актрисы, но… не женщины- Ларисы Голубкиной. Главным своим предназначением она по-прежнему считает "быть женой" и вот уже 23 года - вдовой Андрея Миронова. Нашу съемочную группу Лариса Ивановна пригласила к себе домой с жестким условием не вторгаться в комнату Андрея. Это ее личная территория, ее личная страница жизни. Остальные любит полистать и сама с огромным удовольствием.

Лари́са Ива́новна Голу́бкина (родилась 9 марта 1940, Москва) — советская и российская актриса театра и кино, певица. Народная артистка РСФСР (1991). Вдова актёра театра и кино Андрея Миронова
Качество видео: SatRip

Продолжительность: 00:52:47
Формат: AVI
Видео: XviD, 704x416, 1398 kbps
Аудио: русский, MP3 2.0, 128 kbps

Код:

Общее
Полное имя : D:\Лариса Голубкина. Я тебя никогда не забуду.2010.SATRip.kosta52.avi
Формат : AVI
Формат/Информация : Audio Video Interleave
Размер файла : 580 Мбайт
Продолжительность : 52 м.
Общий поток : 1536 Кбит/сек
Программа кодирования : VirtualDubMod 1.5.10.3 | www.virtualdub-fr.org || (build 2550/release)
Библиотека кодирования : VirtualDubMod build 2550/release

Видео
Идентификатор : 0
Формат : MPEG-4 Visual
Профиль формата : Advanced Simple@L5
Параметр BVOP формата : 2
Параметр QPel формата : Нет
Параметр GMC формата : Без точки перехода
Параметр матрицы формата : Default (MPEG)
Идентификатор кодека : XVID
Идентификатор кодека/Подсказка : XviD
Продолжительность : 52 м.
Битрейт : 1398 Кбит/сек
Ширина : 704 пикселя
Высота : 416 пикселей
Соотношение сторон : 5:3
Частота кадров : 25,000 кадров/сек
Цветовое пространство : YUV
Субдискретизация насыщенности : 4:2:0
Битовая глубина : 8 бит
Тип развёртки : Прогрессивная
Метод сжатия : С потерями
Бит/(Пиксели*Кадры) : 0.191
Размер потока : 528 Мбайт (91%)
Библиотека кодирования : XviD 1.2.1 (UTC 2008-12-04)

Аудио
Идентификатор : 1
Формат : MPEG Audio
Версия формата : Version 1
Профиль формата : Layer 3
Идентификатор кодека : 55
Идентификатор кодека/Подсказка : MP3
Продолжительность : 52 м.
Вид битрейта : Постоянный
Битрейт : 128 Кбит/сек
Каналы : 2 канала
Частота : 48,0 КГц
Метод сжатия : С потерями
Размер потока : 48,3 Мбайт (8%)
Выравнивание : Соединение по промежуткам
Продолжительность промежутка : 40 мс. (1,00 видеокадр)
Время предзагрузки промежутка : 504 мс.
Библиотека кодирования : LAME3.99r
Настройки программы : -m s -V 4 -q 2 -lowpass 17 -b 128
picpicpicpicpic
Для увеличения картинки щелкните мышкой по превью

Этот торрент недоступен для скачивания без регистрации, однако доступен по публичной magnet-ссылке (источники с публичных трекеров). Перед использованием ссылки прочтите, пожалуйста Пользовательское соглашение, а также как можно дольше оставайтесь на раздаче! Для того, чтобы скачать сам торрент-файл (который видит больше источников), а также для того, чтобы поблагодарить релизера, вам необходимо зарегистрироваться. Если регистрироваться лень - вы можете также попробовать скачать релиз по нашим партнерским ссылкам ниже.

[underverse.su].t74038.torrent
Трекер: Зарегистрирован   [ 19.11.2016 13:49 ]  

Статус: проверено (by ARI71 at 19.11.2016 13:51)
Поблагодарили: пока никто не поблагодарил...
Тип торрента: публичный - доступные источники с открытых трекеров: 
Размер: 580 MB (занимает 0,13 DVDR, для записи нужно 1 болванка DVDR/RW)
 
 

Яндекс.Метрика powered by Sphinx


В Н И М А Н И Е
Сайт не распространяет и не хранит электронные версии произведений, а лишь бесплатно и без коммерческой выгоды (не требуя взамен платы,
SMS и т.д.) предоставляет доступ к создаваемому пользователями каталогу ссылок на торрент-файлы, которые содержат только списки хеш-сумм.
Убедительная просьба с жалобами обращаться напрямую к пользователю, разместившему торрент файл.

Вверх