Loading...
Error

Детективы-дайверы / Dive Detectives (6 серий из 6) [2009-2010 г., документальный, научно-познавательный, SatRip] VO + Original (Eng)

Статистика раздачи
Размер:  2,93 GB   |    Зарегистрирован:  13 дней   |    Скачан:  0 раз

Полного источника не было: 13 дней

Сидов:  0  |  0 KB/s  ]   Личеров:  0  |  0 KB/s  ]

* - сиды/пиры с внешних источников

   
 
Автор Сообщение

ARI71 Пол:Муж

19-Ноя-2016 12:08

Детективы-дайверы / Dive Detectives (6 серий из 6)


Год выпуска: 2009-2010
Жанр: документальный, научно-познавательный
Страна: Канада National Geographic
Сюжет фильма:
Новый интересный документальный цикл с превосходными съемками и подводными приключениями. В данных сериях детективы разыскивают атомные бомбы потерянные в Тихом океане. Фильмы, в которых дайверы исследуют 96-метровый корабль у берегов острова Саба в Карибском море и открывают тревожные факты, загадочную реку Меконг в Лаосе, разыскивая лаосские королевские сокровища, потерянные в 1910 году и подводные лодки США, которые затонули во время Второй Мировой войны на Филиппинах.


Качество видео: SatRip

Продолжительность: 6 х ~00:47:00
Формат: AVI
Видео: XviD, 720x416, ~1219 kbps
Аудио #1: русский, одноголосый [профессиональный], MP3 2.0, ~128.00 kbps
Аудио #2: английский, [оригинал], MP3 2.0, ~128.00 kbps
(тех. данные всех серий идентичны)

Код:

Общее
Полное имя : D:\Dive Detectives\1 Ghost Ship.avi
Формат : AVI
Формат/Информация : Audio Video Interleave
Размер файла : 500 Мбайт
Продолжительность : 47 м.
Общий поток : 1485 Кбит/сек
Программа кодирования : VirtualDubMod 1.5.4.1 (build 2178/release)
Библиотека кодирования : VirtualDubMod build 2178/release

Видео
Идентификатор : 0
Формат : MPEG-4 Visual
Профиль формата : Advanced Simple@L5
Параметр BVOP формата : 1
Параметр QPel формата : Нет
Параметр GMC формата : Без точки перехода
Параметр матрицы формата : Выборочная
Идентификатор кодека : XVID
Идентификатор кодека/Подсказка : XviD
Продолжительность : 47 м.
Битрейт : 1219 Кбит/сек
Ширина : 720 пикселей
Высота : 416 пикселей
Соотношение сторон : 1,731
Частота кадров : 25,000 кадров/сек
Цветовое пространство : YUV
Субдискретизация насыщенности : 4:2:0
Битовая глубина : 8 бит
Тип развёртки : Прогрессивная
Метод сжатия : С потерями
Бит/(Пиксели*Кадры) : 0.163
Размер потока : 411 Мбайт (82%)
Библиотека кодирования : XviD 1.2.1 (UTC 2008-12-04)

Аудио #1
Идентификатор : 1
Формат : MPEG Audio
Версия формата : Version 1
Профиль формата : Layer 3
Режим : Joint stereo
Расширение режима : MS Stereo
Идентификатор кодека : 55
Идентификатор кодека/Подсказка : MP3
Продолжительность : 47 м.
Вид битрейта : Постоянный
Битрейт : 128 Кбит/сек
Каналы : 2 канала
Частота : 48,0 КГц
Метод сжатия : С потерями
Размер потока : 43,1 Мбайт (9%)
Выравнивание : Соединение по промежуткам
Продолжительность промежутка : 80 мс. (2,00 видеокадра)
Время предзагрузки промежутка : 504 мс.
Библиотека кодирования : LAME3.98.2

Аудио #2
Идентификатор : 2
Формат : MPEG Audio
Версия формата : Version 1
Профиль формата : Layer 3
Режим : Joint stereo
Расширение режима : MS Stereo
Идентификатор кодека : 55
Идентификатор кодека/Подсказка : MP3
Продолжительность : 47 м.
Вид битрейта : Постоянный
Битрейт : 128 Кбит/сек
Каналы : 2 канала
Частота : 48,0 КГц
Метод сжатия : С потерями
Размер потока : 43,1 Мбайт (9%)
Выравнивание : Соединение по промежуткам
Продолжительность промежутка : 80 мс. (2,00 видеокадра)
Время предзагрузки промежутка : 504 мс.
Библиотека кодирования : LAME3.98.2ЄЄЄЄЄЄЄЄA¶
1. Корабль-призрак / Ghost Ship
Подводные детективы вопреки сильному шторму исследуют 96-метровый корабль у берегов острова Саба в Карибском море и открывают тревожные факты.

2. Будда на дне реки / River Buddha
Наши детективы исследуют загадочную реку Меконг в Лаосе, разыскивая лаосские королевские сокровища, потерянные в 1910 году.

3. Кладбище субмарин / Submarine Graveyard
После роковой катастрофы во время Второй мировой войны на Филиппинах затонули две подводные лодки США. Смогут ли детективы найти их?

4. Потерянные бомбы / Lost a Bombs
Команда погружается на новые глубины в поисках частей неиспользованных атомных бомб, прототипов бомб "Малыш" и "Толстяк", сброшенных на Хиросиму и Нагасаки 6 и 9 августа 1945 года, у Марианской впадины в Тихом океане.

5. Девятый вал / Rogue Wave
Используя новейшие технологии, команда исследует одну из величайших загадок в истории судоходства - гибель сухогруза "Эдмунд Фицжеральд".

6. Гибель военных кораблей / Warships Down
Детективы исследуют два лежащих на дне озера Онтарио прекрасно сохранившихся военных корабля, затонувших в результате внезапного шквала в 1813 году.
picpicpicpicpic
Для увеличения картинки щелкните мышкой по превью

Этот торрент недоступен для скачивания без регистрации, однако доступен по публичной magnet-ссылке (источники с публичных трекеров). Перед использованием ссылки прочтите, пожалуйста Пользовательское соглашение, а также как можно дольше оставайтесь на раздаче! Для того, чтобы скачать сам торрент-файл (который видит больше источников), а также для того, чтобы поблагодарить релизера, вам необходимо зарегистрироваться. Если регистрироваться лень - вы можете также попробовать скачать релиз по нашим партнерским ссылкам ниже.

[underverse.su].t74019.torrent
Трекер: Зарегистрирован   [ 19.11.2016 12:08 ]  

Статус: проверено (by ARI71 at 19.11.2016 12:11)
Поблагодарили: пока никто не поблагодарил...
Тип торрента: публичный - доступные источники с открытых трекеров: 
Размер: 2,93 GB (занимает 0,67 DVDR, для записи нужно 1 болванка DVDR/RW)
 
 

ARI71 Пол:Муж

19-Ноя-2016 12:11

Приятного всем просмотра!

Голосуй за трекер!!




Яндекс.Метрика powered by Sphinx


В Н И М А Н И Е
Сайт не распространяет и не хранит электронные версии произведений, а лишь бесплатно и без коммерческой выгоды (не требуя взамен платы,
SMS и т.д.) предоставляет доступ к создаваемому пользователями каталогу ссылок на торрент-файлы, которые содержат только списки хеш-сумм.
Убедительная просьба с жалобами обращаться напрямую к пользователю, разместившему торрент файл.

Вверх