Loading...
Error

Уроки рыбной ловли / The Session (1-10 выпуск) / (Дункан Чарман) [2010 г., документальный, рыбалка, SatRip] VO

Статистика раздачи
Размер:  2,77 GB   |    Зарегистрирован:  15 дней   |    Скачан:  2 раза

Полного источника не было: 11 дней

Сидов:  0  |  0 KB/s  ]   Личеров:  0  |  0 KB/s  ]

* - сиды/пиры с внешних источников

   
 
Автор Сообщение

ARI71 Пол:Муж

19-Ноя-2016 11:31

Уроки рыбной ловли / The Session (1-10 выпуск)


Год выпуска: 2010
Жанр: документальный, рыбалка
Страна: Великобритания ЗАО "Телекомпания "Стрим"
Режиссер: Дункан Чарман
Сюжет фильма:
Герои и ведущие программы – лучшие рыболовы Великобритании, они делятся со зрителями бесценным опытом обретения рыболовного мастерства и рассказывают удивительные истории о древнейшем промысле.
Качество видео: SatRip

Продолжительность: 10 x ~00:24:00
Формат: AVI
Видео: XviD, 704x528, ~1500 kbps
Аудио: русский, одноголосый закадровый [профессиональный], MP3 2.0, ~128.00 kbps
(тех. данные всех серий идентичны)

Код:

Общее
Полное имя : D:\Uroki rybnoj lovli\Uroki rybnoj lovli.01.2010.SATRip.avi
Формат : AVI
Формат/Информация : Audio Video Interleave
Размер файла : 294 Мбайт
Продолжительность : 25 м.
Общий поток : 1638 Кбит/сек
Программа кодирования : VirtualDubMod 1.5.10.3 | www.virtualdub-fr.org || (build 2550/release)
Библиотека кодирования : VirtualDubMod build 2550/release

Видео
Идентификатор : 0
Формат : MPEG-4 Visual
Профиль формата : Advanced Simple@L5
Параметр BVOP формата : 1
Параметр QPel формата : Нет
Параметр GMC формата : Без точки перехода
Параметр матрицы формата : Default (H.263)
Идентификатор кодека : XVID
Идентификатор кодека/Подсказка : XviD
Продолжительность : 25 м.
Битрейт : 1500 Кбит/сек
Ширина : 704 пикселя
Высота : 528 пикселей
Соотношение сторон : 4:3
Частота кадров : 25,000 кадров/сек
Цветовое пространство : YUV
Субдискретизация насыщенности : 4:2:0
Битовая глубина : 8 бит
Тип развёртки : Прогрессивная
Метод сжатия : С потерями
Бит/(Пиксели*Кадры) : 0.161
Размер потока : 269 Мбайт (92%)
Библиотека кодирования : XviD 1.2.1 (UTC 2008-12-04)

Аудио
Идентификатор : 1
Формат : MPEG Audio
Версия формата : Version 1
Профиль формата : Layer 3
Идентификатор кодека : 55
Идентификатор кодека/Подсказка : MP3
Продолжительность : 25 м.
Вид битрейта : Постоянный
Битрейт : 128 Кбит/сек
Каналы : 2 канала
Частота : 48,0 КГц
Метод сжатия : С потерями
Размер потока : 23,0 Мбайт (8%)
Выравнивание : Соединение по промежуткам
Продолжительность промежутка : 40 мс. (1,00 видеокадр)
Время предзагрузки промежутка : 504 мс.
Библиотека кодирования : LAME3.98r
Настройки программы : -m s -V 4 -q 2 -lowpass 17 -b 128
01. Судак в Олд Бери Хилл
02. Голавль на искусственную приманку
03. Щука на искусственную приманку
04. Усач в небольшой реке
05. Линь в стоячей воде
06. Рыбалка под берегом
07. Рыбалка с ваглером на реке Риббл
08. Бойкий усач
09. Ловля плотвы ч.1
10. Ловля плотвы ч.2
picpicpicpicpic
Для увеличения картинки щелкните мышкой по превью

Этот торрент недоступен для скачивания без регистрации, однако доступен по публичной magnet-ссылке (источники с публичных трекеров). Перед использованием ссылки прочтите, пожалуйста Пользовательское соглашение, а также как можно дольше оставайтесь на раздаче! Для того, чтобы скачать сам торрент-файл (который видит больше источников), а также для того, чтобы поблагодарить релизера, вам необходимо зарегистрироваться. Если регистрироваться лень - вы можете также попробовать скачать релиз по нашим партнерским ссылкам ниже.

[underverse.su].t74016.torrent
Трекер: Зарегистрирован   [ 19.11.2016 11:31 ]  

Статус: проверено (by ARI71 at 19.11.2016 11:34)
Поблагодарили: пока никто не поблагодарил...
Тип торрента: публичный - доступные источники с открытых трекеров: 
Размер: 2,77 GB (занимает 0,63 DVDR, для записи нужно 1 болванка DVDR/RW)
 
 

ARI71 Пол:Муж

19-Ноя-2016 11:32

Приятного всем просмотра!

Голосуй за трекер!!




Яндекс.Метрика powered by Sphinx


В Н И М А Н И Е
Сайт не распространяет и не хранит электронные версии произведений, а лишь бесплатно и без коммерческой выгоды (не требуя взамен платы,
SMS и т.д.) предоставляет доступ к создаваемому пользователями каталогу ссылок на торрент-файлы, которые содержат только списки хеш-сумм.
Убедительная просьба с жалобами обращаться напрямую к пользователю, разместившему торрент файл.

Вверх