Loading...
Error

(Pop) Burito - Burito (2015) FLAC (Image+.Cue), Lossless]

Статистика раздачи
Размер:  388 MB   |    Зарегистрирован:  1 год 7 месяцев   |    Скачан:  7 раз

Полного источника не было: 4 часа

Сидов:  0  |  0 KB/s  ]   Личеров:  0  |  0 KB/s  ]

* - сиды/пиры с внешних источников

   
 
Автор Сообщение

Бишеп Пол:Муж

18-Ноя-2016 19:44

Burito - Burito

Жанр: Pop
Год выпуска: 2015
Источник: CD
Производитель диска: Velvet Music - CD-M+366-2
Аудиокодек: FLAC
Тип рипа: Image+.CUE
Битрейт аудио: lossless
Продолжительность: 00:56:25


Треклист:
01. Intro
02. Я танцую
03. Стих 1
04. Разбей меня
05. Верхних этажей тайная любовь
06. Стих 2
07. Просто лети
08. Ты знаешь feat. Ёлка
09. Стих 3
10. Уходим с титрами
11. Rab Kinoflo
12. Стих 4
13. Беги
14. Пока город спит
15. Стих 5
16. Мама
17. У горизонта
18. Стих 6
19. 24 фрейма feat. Андрей Звонкий
20. Стих 7
21. Подросток
22. Прости мой криминал
23. До свидания
24. Мама (Acoustic)

Код:

Exact Audio Copy V1.1 from 23. June 2015

Отчёт EAC об извлечении, выполненном 21. января 2016, 23:33

 Burito /  Burito

Дисковод: TSSTcorpCDDVDW SN-208BB   Adapter: 1  ID: 0

Режим чтения                 : Достоверность
Использование точного потока : Да
Отключение кэша аудио        : Да
Использование указателей C2  : Нет

Коррекция смещения при чтении                     : 6
Способность читать области Lead-in и Lead-out     : Нет
Заполнение пропущенных сэмплов тишиной            : Да
Удаление блоков с тишиной в начале и конце        : Нет
При вычислениях CRC использовались нулевые сэмплы : Да
Интерфейс                                         : Встроенный Win32-интерфейс для Win NT/2000

Выходной формат : Внутренние WAV-операции
Формат сэмплов  : 44.100 Гц; 16 бит; стерео

TOC извлечённого CD

     Трек |   Старт  | Длительность | Начальный сектор | Конечный сектор
    ---------------------------------------------------------------------
       1  |  0:00.00 |    0:05.60   |           0      |        434     
       2  |  0:05.60 |    3:37.37   |         435      |      16746     
       3  |  3:43.22 |    0:11.17   |       16747      |      17588     
       4  |  3:54.39 |    3:27.04   |       17589      |      33117     
       5  |  7:21.43 |    3:29.34   |       33118      |      48826     
       6  | 10:51.02 |    0:18.12   |       48827      |      50188     
       7  | 11:09.14 |    3:09.50   |       50189      |      64413     
       8  | 14:18.64 |    3:06.59   |       64414      |      78422     
       9  | 17:25.48 |    0:07.09   |       78423      |      78956     
      10  | 17:32.57 |    3:25.25   |       78957      |      94356     
      11  | 20:58.07 |    3:07.15   |       94357      |     108396     
      12  | 24:05.22 |    0:12.31   |      108397      |     109327     
      13  | 24:17.53 |    3:16.00   |      109328      |     124027     
      14  | 27:33.53 |    3:44.49   |      124028      |     140876     
      15  | 31:18.27 |    0:19.03   |      140877      |     142304     
      16  | 31:37.30 |    3:09.00   |      142305      |     156479     
      17  | 34:46.30 |    3:18.32   |      156480      |     171361     
      18  | 38:04.62 |    0:39.53   |      171362      |     174339     
      19  | 38:44.40 |    3:30.00   |      174340      |     190089     
      20  | 42:14.40 |    0:28.39   |      190090      |     192228     
      21  | 42:43.04 |    3:17.10   |      192229      |     207013     
      22  | 46:00.14 |    3:43.04   |      207014      |     223742     
      23  | 49:43.18 |    3:24.00   |      223743      |     239042     
      24  | 53:07.18 |    3:17.45   |      239043      |     253862     

Характеристики диапазона извлечения и сообщения об ошибках

Выбранный диапазон

     Имя файла C:\EAC\Burito -  Burito.wav

     Пиковый уровень 100.0 %
     Скорость извлечения 3.1 X
     Качество диапазона 100.0 %
     CRC теста 2C0E4791
     CRC копии 2C0E4791
     Копирование... OK

Ошибок не произошло

 
AccurateRip: сводка
 
Трек  1  отсутствует в базе данных
Трек  2  отсутствует в базе данных
Трек  3  отсутствует в базе данных
Трек  4  отсутствует в базе данных
Трек  5  отсутствует в базе данных
Трек  6  отсутствует в базе данных
Трек  7  отсутствует в базе данных
Трек  8  отсутствует в базе данных
Трек  9  отсутствует в базе данных
Трек 10  отсутствует в базе данных
Трек 11  отсутствует в базе данных
Трек 12  отсутствует в базе данных
Трек 13  отсутствует в базе данных
Трек 14  отсутствует в базе данных
Трек 15  отсутствует в базе данных
Трек 16  отсутствует в базе данных
Трек 17  отсутствует в базе данных
Трек 18  отсутствует в базе данных
Трек 19  отсутствует в базе данных
Трек 20  отсутствует в базе данных
Трек 21  отсутствует в базе данных
Трек 22  отсутствует в базе данных
Трек 23  отсутствует в базе данных
Трек 24  отсутствует в базе данных
 
Ни одного трека нет в базе AccurateRip

Конец отчёта

---- CUETools DB Plugin V2.1.6

[CTDB TOCID: iT3BxMEDd0cUhH9mqkX7iKcYyo8-] disk not present in database
Submit result: iT3BxMEDd0cUhH9mqkX7iKcYyo8- has been uploaded

==== Контрольная сумма отчёта 69358A5950A2A0DC52643F0B2A8A50C81D4DFD14FE08BE8DFB61A8FC1C632CEA ====

Код:

REM GENRE Pop
REM DATE 2015
REM DISCID 630D3818
REM COMMENT "ExactAudioCopy v1.1"
PERFORMER " Burito"
TITLE " Burito"
FILE "Burito -  Burito.flac" WAVE
  TRACK 01 AUDIO
    TITLE "Intro"
    PERFORMER " Burito"
    INDEX 01 00:00:00
  TRACK 02 AUDIO
    TITLE "Я Танцую"
    PERFORMER " Burito"
    INDEX 01 00:05:60
  TRACK 03 AUDIO
    TITLE "Стих 1"
    PERFORMER " Burito"
    INDEX 01 03:43:22
  TRACK 04 AUDIO
    TITLE "Разбей Меня"
    PERFORMER " Burito"
    INDEX 01 03:54:39
  TRACK 05 AUDIO
    TITLE "Верхних Этажей Тайная Любовь"
    PERFORMER " Burito"
    INDEX 01 07:21:43
  TRACK 06 AUDIO
    TITLE "Стих 2"
    PERFORMER " Burito"
    INDEX 01 10:51:02
  TRACK 07 AUDIO
    TITLE "Просто Лети"
    PERFORMER " Burito"
    INDEX 01 11:09:14
  TRACK 08 AUDIO
    TITLE "Ты Знаешь"
    PERFORMER " Burito feat. Ёлка"
    INDEX 01 14:18:64
  TRACK 09 AUDIO
    TITLE "Стих 3"
    PERFORMER " Burito"
    INDEX 01 17:25:48
  TRACK 10 AUDIO
    TITLE "Уходим С Титрами"
    PERFORMER " Burito"
    INDEX 01 17:32:57
  TRACK 11 AUDIO
    TITLE "Rab Kinoflo"
    PERFORMER " Burito"
    INDEX 01 20:58:07
  TRACK 12 AUDIO
    TITLE "Стих 4"
    PERFORMER " Burito"
    INDEX 01 24:05:22
  TRACK 13 AUDIO
    TITLE "Беги"
    PERFORMER " Burito"
    INDEX 01 24:17:53
  TRACK 14 AUDIO
    TITLE "Пока Город Спит"
    PERFORMER " Burito"
    INDEX 01 27:33:53
  TRACK 15 AUDIO
    TITLE "Стих 5"
    PERFORMER " Burito"
    INDEX 01 31:18:27
  TRACK 16 AUDIO
    TITLE "Мама"
    PERFORMER " Burito"
    INDEX 01 31:37:30
  TRACK 17 AUDIO
    TITLE "У Горизонта"
    PERFORMER " Burito"
    INDEX 01 34:46:30
  TRACK 18 AUDIO
    TITLE "Стих 6"
    PERFORMER " Burito"
    INDEX 01 38:04:62
  TRACK 19 AUDIO
    TITLE "24 Фрейма"
    PERFORMER " Burito feat. Андрей Звонкий"
    INDEX 01 38:44:40
  TRACK 20 AUDIO
    TITLE "Стих 7"
    PERFORMER " Burito"
    INDEX 01 42:14:40
  TRACK 21 AUDIO
    TITLE "Подросток"
    PERFORMER " Burito"
    INDEX 01 42:43:04
  TRACK 22 AUDIO
    TITLE "Прости Мой Криминал"
    PERFORMER " Burito"
    INDEX 01 46:00:14
  TRACK 23 AUDIO
    TITLE "До Свидания"
    PERFORMER " Burito"
    INDEX 01 49:43:18
  TRACK 24 AUDIO
    TITLE "Мама (Acoustic)"
    PERFORMER " Burito"
    INDEX 01 53:07:18

Этот торрент недоступен для скачивания без регистрации, однако доступен по публичной magnet-ссылке (источники с публичных трекеров). Перед использованием ссылки прочтите, пожалуйста Пользовательское соглашение, а также как можно дольше оставайтесь на раздаче! Для того, чтобы скачать сам торрент-файл (который видит больше источников), а также для того, чтобы поблагодарить релизера, вам необходимо зарегистрироваться. Если регистрироваться лень - вы можете также попробовать скачать релиз по нашим партнерским ссылкам ниже. Кроме того, зарегистрированным пользователям не показывается всплывающая реклама при скачивании.

[underverse.su].t73961.torrent
Трекер: Зарегистрирован   [ 18.11.2016 19:44 ]  

Статус: проверено (by Бишеп at 18.11.2016 19:44)
Поблагодарили: пока никто не поблагодарил...
Тип торрента: публичный - доступные источники с открытых трекеров: 
Размер: 388 MB (занимает 0,09 DVDR, для записи нужно 1 болванка DVDR/RW)
 
 

Яндекс.Метрика powered by Sphinx


В Н И М А Н И Е
Сайт не распространяет и не хранит электронные версии произведений, а лишь бесплатно и без коммерческой выгоды (не требуя взамен платы,
SMS и т.д.) предоставляет доступ к создаваемому пользователями каталогу ссылок на торрент-файлы, которые содержат только списки хеш-сумм.
Убедительная просьба с жалобами обращаться напрямую к пользователю, разместившему торрент файл.

Вверх