Loading...
Error

Сети истории. Джироламо Савонарола / Storia in Rete. Le visioni di Savonarola (Александра Джиганте) [2011 г., документальный, постановочный, история, SatRip] DVO (Игмар)

Статистика раздачи
Размер:  849 MB   |    Зарегистрирован:  16 дней   |    Скачан:  2 раза
Сидов:  1  |  0 KB/s  ]   Личеров:  0  |  0 KB/s  ]

* - сиды/пиры с внешних источников

   
 
Автор Сообщение

ARI71 Пол:Муж

17-Ноя-2016 18:48

Сети истории. Джироламо Савонарола / Storia in Rete. Le visioni di Savonarola


Год выпуска: 2011
Жанр: документальный, постановочный, история
Страна: Италия Storia in Rete
Режиссер: Александра Джиганте
Сюжет фильма:
Тот, кого уважали и боялись теперь оказался презренным и высмеянным. Он был известен своими проповедями, а теперь ему самому выносят приговор. Без обжалования. Джироламо Савонарола. Кем был на самом деле этот монах: пророком или еретиком? Что связывало его с папой Борджиа и Боттичелли? Чего хотел он от Флоренции, Италии и всего мира?

Джирола́мо Савонаро́ла (итал. Girolamo Savonarola; 1452—1498) — итальянский монах и реформатор 1494—1498 годов.
Качество видео: SatRip

Продолжительность: 00:59:20
Формат: AVI
Видео: XviD, 720x400, 1800 kbps
Аудио: русский, двухголосый [профессиональный, Игмар], AC3 2.0, 192.00 kbps

Автор рипа: skorpionN

Код:

Общее
Полное имя : D:\Le visioni di Savonarola.avi
Формат : AVI
Формат/Информация : Audio Video Interleave
Размер файла : 849 Мбайт
Продолжительность : 59 м.
Общий поток : 2002 Кбит/сек
Программа кодирования : VirtualDubMod 1.5.10.3 | www.virtualdub-fr.org || (build 2550/release)
Библиотека кодирования : VirtualDubMod build 2550/release

Видео
Идентификатор : 0
Формат : MPEG-4 Visual
Профиль формата : Advanced Simple@L5
Параметр BVOP формата : 2
Параметр QPel формата : Нет
Параметр GMC формата : Без точки перехода
Параметр матрицы формата : Default (H.263)
Идентификатор кодека : XVID
Идентификатор кодека/Подсказка : XviD
Продолжительность : 59 м.
Битрейт : 1800 Кбит/сек
Ширина : 720 пикселей
Высота : 400 пикселей
Соотношение сторон : 16:9
Частота кадров : 25,000 кадров/сек
Цветовое пространство : YUV
Субдискретизация насыщенности : 4:2:0
Битовая глубина : 8 бит
Тип развёртки : Прогрессивная
Метод сжатия : С потерями
Бит/(Пиксели*Кадры) : 0.250
Размер потока : 764 Мбайт (90%)
Библиотека кодирования : XviD 1.2.1 (UTC 2008-12-04)

Аудио
Идентификатор : 1
Формат : AC-3
Формат/Информация : Audio Coding 3
Расширение режима : CM (complete main)
Параметр Endianness формата : Big
Идентификатор кодека : 2000
Продолжительность : 59 м.
Вид битрейта : Постоянный
Битрейт : 192 Кбит/сек
Каналы : 2 канала
Расположение каналов : Front: L R
Частота : 48,0 КГц
Частота кадров : 31,250 кадров/сек (1536 spf)
Метод сжатия : С потерями
Размер потока : 81,5 Мбайт (10%)
Выравнивание : Разделение по промежуткам
Продолжительность промежутка : 40 мс. (1,00 видеокадр)
Время предзагрузки промежутка : 500 мс.
picpicpicpicpic
Для увеличения картинки щелкните мышкой по превью

Этот торрент недоступен для скачивания без регистрации, однако доступен по публичной magnet-ссылке (источники с публичных трекеров). Перед использованием ссылки прочтите, пожалуйста Пользовательское соглашение, а также как можно дольше оставайтесь на раздаче! Для того, чтобы скачать сам торрент-файл (который видит больше источников), а также для того, чтобы поблагодарить релизера, вам необходимо зарегистрироваться. Если регистрироваться лень - вы можете также попробовать скачать релиз по нашим партнерским ссылкам ниже.

[underverse.su].t73890.torrent
Трекер: Зарегистрирован   [ 17.11.2016 18:48 ]  

Статус: проверено (by ARI71 at 17.11.2016 18:50)
Поблагодарили: пока никто не поблагодарил...
Тип торрента: публичный - доступные источники с открытых трекеров: 
Размер: 849 MB (занимает 0,19 DVDR, для записи нужно 1 болванка DVDR/RW)
 
 
Похожие темы
Форум Тема Автор Торрент Отв. Посл. сооб.
Исторические фильмы Сети истории. Анна Мария Луиза Медичи-последняя из Медичи / Storia in Rete. L’ultima del Medici: l’Elettrice Palatina (Александра Джиганте) [2011 г., документальный, постановочный, история, SatRip]... ARI71
2 | 1

1 | 396

0

25.11.2016 07:02

Исторические фильмы Сети истории. Галилео Галилей / Storia in Rete. Galileo Galilei (Александра Джиганте) [2009 г., документальный, постановочный, история, архитектура, SatRip] DVO (Игмар) ARI71
0 | 0

1 | 297

1

03.11.2016 13:49

Исторические фильмы Сети истории. Правдивая история о Караваджо / Storia in Rete. La vera storia di Caravaggio (Александра Джиганте, Фабио Андриола) [2013 г., документальный, постановочный, история, архитектура, SatRip]... ARI71
8 | 0

1 | 529

2

29.10.2016 09:36

Исторические фильмы Сети истории. Правдивая история о Ромео и Джульетте / Storia in Rete. La vera storia di Romeo e Giulietta (Александра Джиганте) [2011 г., документальный, постановочный, история, архитектура, SatRip]... ARI71
2 | 0

1 | 457

2

20.10.2016 18:49

Исторические фильмы Сети истории. Изабелла д'Эсте – Примадонна Возрождения / Storia in Rete. Isabella d'Este - La Signora del Rinascimento (Александра Джиганте) [2011 г., документальный, история, архитектура, SatRip]... ARI71
1 | 2

1 | 274

0

14.10.2016 11:31

Исторические фильмы Сети истории. Правдивая история Никколо Макиавелли / Storia in Rete. Niccolo Machiavelli (Александра Джиганте) [2011 г., документальный, постановочный, история, архитектура, исследования, SatRip] VO... ARI71
6 | 0

1 | 650

3

07.10.2016 10:36


Яндекс.Метрика powered by Sphinx


В Н И М А Н И Е
Сайт не распространяет и не хранит электронные версии произведений, а лишь бесплатно и без коммерческой выгоды (не требуя взамен платы,
SMS и т.д.) предоставляет доступ к создаваемому пользователями каталогу ссылок на торрент-файлы, которые содержат только списки хеш-сумм.
Убедительная просьба с жалобами обращаться напрямую к пользователю, разместившему торрент файл.

Вверх