Loading...
Error

(Pop) Форум - группа Форум (2008) [FLAC (Image+.Cue), Lossless]

Статистика раздачи
Размер:  450 MB   |    Зарегистрирован:  2 года   |    Скачан:  13 раз

Полного источника не было: 7 дней

Сидов:  0  |  0 KB/s  ]   Личеров:  0  |  0 KB/s  ]

* - сиды/пиры с внешних источников

   
 
Автор Сообщение

Бишеп Пол:Муж

17-Ноя-2016 09:41

Форум - группа Форум

Жанр: Pop
Год выпуска: 2008
Источник: CD
Производитель диска: Фирма Мелодия Украина - NMCCD-0118
Аудиокодек: FLAC
Тип рипа: Image+.CUE
Битрейт аудио: lossless
Продолжительность: 01:13:34


Треклист:
01. Белая ночь
02. Какая нелепость
03. Беда
04. Улетели листья
05. Островок
06. Давайте созвонимся!
07. Что сравнится с юностью...
08. Журавль в небе
09. Форум
10. Поверьте!
11. Мечтатель
12. Закодирована дверь
13. Ты пожалеешь
14. Серенада
15. На соседней улице
16. Третий лишний
17. Никто не виноват
18. Шумела синяя река
19. Я другой

Код:

Exact Audio Copy V0.99 prebeta 5 from 4. May 2009

Отчёт EAC об извлечении, выполненном 17. августа 2013, 9:42

Форум / группа Форум

Дисковод: TEAC    CD-W54E   Adapter: 1  ID: 0

Режим чтения                 : Достоверность
Использование точного потока : Да
Отключение кэша аудио        : Да
Использование указателей C2  : Нет

Коррекция смещения при чтении                     : 685
Способность читать области Lead-in и Lead-out     : Нет
Заполнение пропущенных сэмплов тишиной            : Да
Удаление блоков с тишиной в начале и конце        : Нет
При вычислениях CRC использовались нулевые сэмплы : Да
Интерфейс                                         : Встроенный Win32-интерфейс для Win NT/2000

Выходной формат : Внутренние WAV-операции
Формат сэмплов  : 44.100 Гц; 16 бит; стерео

TOC извлечённого CD

     Трек |   Старт  | Длительность | Начальный сектор | Конечный сектор
    ---------------------------------------------------------------------
       1  |  0:00.00 |    4:21.23   |           0      |      19597     
       2  |  4:21.23 |    3:55.30   |       19598      |      37252     
       3  |  8:16.53 |    3:11.03   |       37253      |      51580     
       4  | 11:27.56 |    4:15.17   |       51581      |      70722     
       5  | 15:42.73 |    3:24.31   |       70723      |      86053     
       6  | 19:07.29 |    3:26.28   |       86054      |     101531     
       7  | 22:33.57 |    3:31.02   |      101532      |     117358     
       8  | 26:04.59 |    3:33.40   |      117359      |     133373     
       9  | 29:38.24 |    3:43.29   |      133374      |     150127     
      10  | 33:21.53 |    4:51.64   |      150128      |     172016     
      11  | 38:13.42 |    4:13.47   |      172017      |     191038     
      12  | 42:27.14 |    4:00.27   |      191039      |     209065     
      13  | 46:27.41 |    3:41.02   |      209066      |     225642     
      14  | 50:08.43 |    5:36.53   |      225643      |     250895     
      15  | 55:45.21 |    2:44.12   |      250896      |     263207     
      16  | 58:29.33 |    3:36.11   |      263208      |     279418     
      17  | 62:05.44 |    4:10.10   |      279419      |     298178     
      18  | 66:15.54 |    3:16.65   |      298179      |     312943     
      19  | 69:32.44 |    4:02.03   |      312944      |     331096     

Характеристики диапазона извлечения и сообщения об ошибках

Выбранный диапазон

     Имя файла D:\bqw\release\Форум - группа Форум.wav

     Пиковый уровень 73.3 %
     Качество диапазона 100.0 %
     CRC теста 6E322765
     CRC копии 6E322765
     Копирование... OK

Ошибок не произошло

Конец отчёта

Код:

REM GENRE Pop/Retro
REM DATE 2008
REM DISCID 2B113E13
REM COMMENT "ExactAudioCopy v0.99pb5"
PERFORMER "Форум"
TITLE "группа Форум"
FILE "Форум - группа Форум.flac" WAVE
  TRACK 01 AUDIO
    TITLE "Белая ночь"
    PERFORMER "Форум"
    FLAGS DCP
    INDEX 01 00:00:00
  TRACK 02 AUDIO
    TITLE "Какая нелепость"
    PERFORMER "Форум"
    FLAGS DCP
    INDEX 00 04:19:25
    INDEX 01 04:21:23
  TRACK 03 AUDIO
    TITLE "Беда"
    PERFORMER "Форум"
    FLAGS DCP
    INDEX 00 08:14:53
    INDEX 01 08:16:53
  TRACK 04 AUDIO
    TITLE "Улетели листья"
    PERFORMER "Форум"
    FLAGS DCP
    INDEX 00 11:25:60
    INDEX 01 11:27:56
  TRACK 05 AUDIO
    TITLE "Островок"
    PERFORMER "Форум"
    FLAGS DCP
    INDEX 00 15:40:73
    INDEX 01 15:42:73
  TRACK 06 AUDIO
    TITLE "Давайте созвонимся!"
    PERFORMER "Форум"
    FLAGS DCP
    INDEX 00 19:05:39
    INDEX 01 19:07:29
  TRACK 07 AUDIO
    TITLE "Что сравнится с юностью..."
    PERFORMER "Форум"
    FLAGS DCP
    INDEX 00 22:31:57
    INDEX 01 22:33:57
  TRACK 08 AUDIO
    TITLE "Журавль в небе"
    PERFORMER "Форум"
    FLAGS DCP
    INDEX 00 26:02:60
    INDEX 01 26:04:59
  TRACK 09 AUDIO
    TITLE "Форум"
    PERFORMER "Форум"
    FLAGS DCP
    INDEX 00 29:36:33
    INDEX 01 29:38:24
  TRACK 10 AUDIO
    TITLE "Поверьте!"
    PERFORMER "Форум"
    FLAGS DCP
    INDEX 00 33:19:54
    INDEX 01 33:21:53
  TRACK 11 AUDIO
    TITLE "Мечтатель"
    PERFORMER "Форум"
    FLAGS DCP
    INDEX 00 38:11:48
    INDEX 01 38:13:42
  TRACK 12 AUDIO
    TITLE "Закодирована дверь"
    PERFORMER "Форум"
    FLAGS DCP
    INDEX 00 42:25:19
    INDEX 01 42:27:14
  TRACK 13 AUDIO
    TITLE "Ты пожалеешь"
    PERFORMER "Форум"
    FLAGS DCP
    INDEX 00 46:25:42
    INDEX 01 46:27:41
  TRACK 14 AUDIO
    TITLE "Серенада"
    PERFORMER "Форум"
    FLAGS DCP
    INDEX 00 50:06:45
    INDEX 01 50:08:43
  TRACK 15 AUDIO
    TITLE "На соседней улице"
    PERFORMER "Форум"
    FLAGS DCP
    INDEX 00 55:43:21
    INDEX 01 55:45:21
  TRACK 16 AUDIO
    TITLE "Третий лишний"
    PERFORMER "Форум"
    FLAGS DCP
    INDEX 00 58:27:38
    INDEX 01 58:29:33
  TRACK 17 AUDIO
    TITLE "Никто не виноват"
    PERFORMER "Форум"
    FLAGS DCP
    INDEX 00 62:03:44
    INDEX 01 62:05:44
  TRACK 18 AUDIO
    TITLE "Шумела синяя река"
    PERFORMER "Форум"
    FLAGS DCP
    INDEX 00 66:13:65
    INDEX 01 66:15:54
  TRACK 19 AUDIO
    TITLE "Я другой"
    PERFORMER "Форум"
    FLAGS DCP
    INDEX 00 69:30:49
    INDEX 01 69:32:44

Этот торрент недоступен для скачивания без регистрации, однако доступен по публичной magnet-ссылке (источники с публичных трекеров). Перед использованием ссылки прочтите, пожалуйста Пользовательское соглашение, а также как можно дольше оставайтесь на раздаче! Для того, чтобы скачать сам торрент-файл (который видит больше источников), а также для того, чтобы поблагодарить релизера, вам необходимо зарегистрироваться. Если регистрироваться лень - вы можете также попробовать скачать релиз по нашим партнерским ссылкам ниже. Кроме того, зарегистрированным пользователям не показывается всплывающая реклама при скачивании.

[underverse.su].t73843.torrent
Трекер: Зарегистрирован   [ 17.11.2016 09:41 ]  

Статус: проверено (by Бишеп at 17.11.2016 09:41)
Поблагодарили: 2 человека
Тип торрента: публичный - доступные источники с открытых трекеров: 
Размер: 450 MB (занимает 0,1 DVDR, для записи нужно 1 болванка DVDR/RW)
 
 

Яндекс.Метрика powered by Sphinx


В Н И М А Н И Е
Сайт не распространяет и не хранит электронные версии произведений, а лишь бесплатно и без коммерческой выгоды (не требуя взамен платы,
SMS и т.д.) предоставляет доступ к создаваемому пользователями каталогу ссылок на торрент-файлы, которые содержат только списки хеш-сумм.
Убедительная просьба с жалобами обращаться напрямую к пользователю, разместившему торрент файл.

Вверх