Loading...
Error

(Pop Rock) Денис Майданов - Арендованный мир (2011) [FLAC (Image+.Cue), Lossless]

Статистика раздачи
Размер:  383 MB   |    Зарегистрирован:  1 год 7 месяцев   |    Скачан:  5 раз
Сидов:  1  |  0 KB/s  ]   Личеров:  0  |  0 KB/s  ]

* - сиды/пиры с внешних источников

   
 
Автор Сообщение

Бишеп Пол:Муж

17-Ноя-2016 08:59

Денис Майданов - Арендованный мир

Жанр: Pop Rock
Год выпуска: 2011
Источник: CD
Производитель диска: Монолит - МТ 000410-610-1
Аудиокодек: FLAC
Тип рипа: Image+.CUE
Битрейт аудио: lossless
Продолжительность: 00:51:38


Треклист:
01. Пуля
02. Ничего не жаль
03. Не может быть
04. Я богат
05. Дом
06. Молодым умирать не страшно
07. Арендованный мир
08. Дай мне огонь
09. Растают следы…
10. 1000 лет
11. Бесконечная молодость
12. Я верю в любовь

Код:

Exact Audio Copy V0.99 prebeta 5 from 4. May 2009

Отчёт EAC об извлечении, выполненном 21. июня 2011, 21:02

Денис Майданов / Арендованный мир

Дисковод: TSSTcorpDVD+-RW TS-L632H   Adapter: 3  ID: 0

Режим чтения                 : Достоверность
Использование точного потока : Да
Отключение кэша аудио        : Да
Использование указателей C2  : Нет

Коррекция смещения при чтении                     : 6
Способность читать области Lead-in и Lead-out     : Нет
Заполнение пропущенных сэмплов тишиной            : Да
Удаление блоков с тишиной в начале и конце        : Нет
При вычислениях CRC использовались нулевые сэмплы : Да
Интерфейс                                         : Встроенный Win32-интерфейс для Win NT/2000

Выходной формат : Внутренние WAV-операции
Формат сэмплов  : 44.100 Гц; 16 бит; стерео

TOC извлечённого CD

     Трек |   Старт  | Длительность | Начальный сектор | Конечный сектор
    ---------------------------------------------------------------------
       1  |  0:00.00 |    4:24.62   |           0      |      19861     
       2  |  4:24.62 |    3:44.41   |       19862      |      36702     
       3  |  8:09.28 |    5:24.46   |       36703      |      61048     
       4  | 13:33.74 |    3:49.02   |       61049      |      78225     
       5  | 17:23.01 |    4:07.15   |       78226      |      96765     
       6  | 21:30.16 |    3:27.23   |       96766      |     112313     
       7  | 24:57.39 |    4:33.53   |      112314      |     132841     
       8  | 29:31.17 |    4:07.14   |      132842      |     151380     
       9  | 33:38.31 |    5:33.32   |      151381      |     176387     
      10  | 39:11.63 |    4:02.53   |      176388      |     194590     
      11  | 43:14.41 |    3:59.62   |      194591      |     212577     
      12  | 47:14.28 |    4:23.61   |      212578      |     232363     

Характеристики диапазона извлечения и сообщения об ошибках

Выбранный диапазон

     Имя файла D:\Downloads\Денис Майданов - Арендованный мир (2011)\Денис Майданов - Арендованный мир.wav

     Пиковый уровень 99.9 %
     Качество диапазона 100.0 %
     CRC теста 96957E21
     CRC копии 96957E21
     Копирование... OK

Ошибок не произошло

 
AccurateRip: сводка
 
Трек  1  нет в базе данных
Трек  2  нет в базе данных
Трек  3  нет в базе данных
Трек  4  нет в базе данных
Трек  5  нет в базе данных
Трек  6  нет в базе данных
Трек  7  нет в базе данных
Трек  8  нет в базе данных
Трек  9  нет в базе данных
Трек 10  нет в базе данных
Трек 11  нет в базе данных
Трек 12  нет в базе данных
 
Ни одного трека нет в базе AccurateRip

Конец отчёта

Код:

REM GENRE Pop
REM DATE 2011
REM DISCID A70C1A0C
REM COMMENT "ExactAudioCopy v0.99pb5"
PERFORMER "Денис Майданов"
TITLE "Арендованный мир"
FILE "Денис Майданов - Арендованный мир.flac" WAVE
  TRACK 01 AUDIO
    TITLE "Пуля"
    PERFORMER "Денис Майданов"
    INDEX 01 00:00:00
  TRACK 02 AUDIO
    TITLE "Ничего не жаль"
    PERFORMER "Денис Майданов"
    INDEX 01 04:24:62
  TRACK 03 AUDIO
    TITLE "Не может быть"
    PERFORMER "Денис Майданов"
    INDEX 01 08:09:28
  TRACK 04 AUDIO
    TITLE "Я богат"
    PERFORMER "Денис Майданов"
    INDEX 01 13:33:74
  TRACK 05 AUDIO
    TITLE "Дом"
    PERFORMER "Денис Майданов"
    INDEX 01 17:23:01
  TRACK 06 AUDIO
    TITLE "Молодым умирать не страшно"
    PERFORMER "Денис Майданов"
    INDEX 01 21:30:16
  TRACK 07 AUDIO
    TITLE "Арендованный мир"
    PERFORMER "Денис Майданов"
    INDEX 01 24:57:39
  TRACK 08 AUDIO
    TITLE "Дай мне огонь"
    PERFORMER "Денис Майданов"
    INDEX 01 29:31:17
  TRACK 09 AUDIO
    TITLE "Растают следы…"
    PERFORMER "Денис Майданов"
    INDEX 01 33:38:31
  TRACK 10 AUDIO
    TITLE "1000 лет"
    PERFORMER "Денис Майданов"
    INDEX 01 39:11:63
  TRACK 11 AUDIO
    TITLE "Бесконечная молодость"
    PERFORMER "Денис Майданов"
    INDEX 01 43:14:41
  TRACK 12 AUDIO
    TITLE "Я верю в любовь"
    PERFORMER "Денис Майданов"
    INDEX 01 47:14:28

Этот торрент недоступен для скачивания без регистрации, однако доступен по публичной magnet-ссылке (источники с публичных трекеров). Перед использованием ссылки прочтите, пожалуйста Пользовательское соглашение, а также как можно дольше оставайтесь на раздаче! Для того, чтобы скачать сам торрент-файл (который видит больше источников), а также для того, чтобы поблагодарить релизера, вам необходимо зарегистрироваться. Если регистрироваться лень - вы можете также попробовать скачать релиз по нашим партнерским ссылкам ниже. Кроме того, зарегистрированным пользователям не показывается всплывающая реклама при скачивании.

[underverse.su].t73837.torrent
Трекер: Зарегистрирован   [ 17.11.2016 08:59 ]  

Статус: проверено (by Бишеп at 17.11.2016 08:59)
Поблагодарили: 1 человек
Тип торрента: публичный - доступные источники с открытых трекеров: 
Размер: 383 MB (занимает 0,09 DVDR, для записи нужно 1 болванка DVDR/RW)
 
 
Похожие темы
Форум Тема Автор Торрент Отв. Посл. сооб.
Зарубежная Pop Музыка (Pop Rock) Pink - The Truth About Love (Deluxe Edition) (2012) [MP3, 320 kbps] Jimmy
1 | 0

1 | 1271

23

20.09.2012 18:32

Отечественная Pop Музыка (Pop Rock) Денис Майданов - Пролетая над нами (2014) [MP3, 320 kbps CBR] valera87
5 | 0

0 | 1276

25

25.05.2014 09:02

Отечественная Pop Музыка (Pop Rock) Моя Мишель - Ты Мне Нравишься (2013) [MP3, 320 kbps CBR] valera87
38 | 0

0 | 1676

11

25.05.2014 09:20

Отечественная Pop Музыка (Pop Rock) Любэ - За тебя Родина-мать! (2015) [MP3, 320 kbps CBR] 90ytr90
26 | 6

1 | 1723

51

05.03.2015 08:19

Зарубежный Hard, Progressive, Soft, Melodic, AOR, Folk, Classic Rock (Pop Rock) Sarah McLeod - Rocky's Diner (Deluxe Edition) (2017) [MP3, 320 kbps CBR] Darkferse
0 | 0

0 | 199

0

03.01.2018 01:03

Зарубежный Hard, Progressive, Soft, Melodic, AOR, Folk, Classic Rock (Pop Rock) Kirk Ross - Cartwheel (2017) [MP3, 320 kbps CBR] Darkferse
2 | 0

0 | 312

2

04.01.2018 00:43

Зарубежная Поп Музыка (Lossless) (Pop Rock) Smokie - The Best Of (1998) [FLAC (Image+.CUE), Lossless] Бишеп
2 | 0

0 | 1411

32

10.04.2012 16:46

Зарубежная Поп Музыка (Lossless) (Pop Rock) Bonnie Tyler - Secret Dreams And Forbidden Fire (1986) [FLAC (Image+.Cue), Lossless] Бишеп
1 | 0

0 | 839

3

12.11.2016 19:09

Зарубежная Поп Музыка (Lossless) (Pop Rock) Tom Jones – Spirit In The Room (2013) [FLAC (Image+.CUE), Lossless] Бишеп
1 | 0

0 | 1386

11

05.05.2013 16:25

Зарубежная Поп Музыка (Lossless) (Pop Rock) P!nk (Pink) - The Truth About Love (Deluxe Edition) (2012) [FLAC (Tracks+.CUE), Lossless] Бишеп
5 | 4

0 | 2227

9

22.05.2013 15:31


Яндекс.Метрика powered by Sphinx


В Н И М А Н И Е
Сайт не распространяет и не хранит электронные версии произведений, а лишь бесплатно и без коммерческой выгоды (не требуя взамен платы,
SMS и т.д.) предоставляет доступ к создаваемому пользователями каталогу ссылок на торрент-файлы, которые содержат только списки хеш-сумм.
Убедительная просьба с жалобами обращаться напрямую к пользователю, разместившему торрент файл.

Вверх