Loading...
Error

Лето в веснушках / Strazdanota vasara (Бронюс Талачка) [1988 г., драма, семейный, TVRip-AVC] DVO + Original + Sub

Статистика раздачи
Размер:  846 MB   |    Зарегистрирован:  19 дней   |    Скачан:  0 раз

Полного источника не было: 9 часов

Сидов:  0  |  0 KB/s  ]   Личеров:  0  |  0 KB/s  ]

* - сиды/пиры с внешних источников

   
 
Автор Сообщение

makkol Пол:Муж

16-Ноя-2016 13:57

Лето в веснушках / Strazdanota vasara


Год выпуска: 1988
Жанр: драма, семейный
Производство: СССР [Литовская телестудия]
Режиссер: Бронюс Талачка
В ролях: Аста Эйниките, Нийоле Лепешкайте, Харольдас Танкявичюс, Сакалас Уждавинис, Леонардас Зельчюс, Илона Бальсите, Юозас Ярушявичюс, Викторас Валашинас, Таурас Чижас, Витаутас Канцлерис
Сюжет фильма:
В основе лиричного, весёлого фильма - летние приключения десятилетнего мальчика Адулиса Бабарскаса, который живёт в деревне с матерью и старшим братом Раполасом. Адулис сочувствует дружбе брата с соседкой Живиле. Когда же Раполас уходит в армию, за Живиле начинает ухаживать молодой лесничий Угнюс. Адулис пишет об этом брату. Приехав в отпуск, Раполас, к великому удивлению Адулиса, подружился с Угнюсом, а когда Живиле уезжает в город, провожает её только Адулис. Обманчив и необъясним мир взрослых, приходит к выводу мальчик.
По мотивам повести Бронюса Бушмы "Хорёк в силках".

Качество видео: TVRip-AVC

Продолжительность: 01:17:45
Формат: MKV
Видео: MPEG-4 AVC, 720x576 (5:4), 25.000 fps, 1200 kbps
Аудио #1: русский, любительский двухголосый закадровый, MP3 2.0, 48 kHz, 192 kbps
Аудио #2: литовский, оригинал, MP3 2.0, 44.1 kHz, 128 kbps
Субтитры: русские вшитые отключаемые

Код:

Формат                                   : Matroska
Версия формата                           : Version 4 / Version 2
Размер файла                             : 846 Мбайт
Продолжительность                        : 1 ч. 17 м.
Общий поток                              : 1521 Кбит/сек
Дата кодирования                         : UTC 2016-11-16 00:47:10
Программа кодирования                    : mkvmerge v9.4.2 ('So High') 64bit
Библиотека кодирования                   : libebml v1.3.4 + libmatroska v1.4.5
DURATION                                 : 01:11:26.570000000
NUMBER_OF_FRAMES                         : 504
NUMBER_OF_BYTES                          : 28987
_STATISTICS_WRITING_APP                  : mkvmerge v9.4.2 ('So High') 64bit
_STATISTICS_WRITING_DATE_UTC             : 2016-11-16 00:47:10
_STATISTICS_TAGS                         : BPS DURATION NUMBER_OF_FRAMES NUMBER_OF_BYTES

Видео
Идентификатор                            : 1
Формат                                   : AVC
Формат/Информация                        : Advanced Video Codec
Профиль формата                          : High@L3
Параметр CABAC формата                   : Да
Параметр ReFrames формата                : 2 кадра
Идентификатор кодека                     : V_MPEG4/ISO/AVC
Продолжительность                        : 1 ч. 17 м.
Вид битрейта                             : Постоянный
Битрейт                                  : 1200 Кбит/сек
Ширина                                   : 720 пикселей
Высота                                   : 576 пикселей
Соотношение сторон                       : 5:4
Режим частоты кадров                     : Постоянный
Частота кадров                           : 25,000 кадров/сек
Стандарт вещания                         : PAL
Цветовое пространство                    : YUV
Субдискретизация насыщенности            : 4:2:0
Битовая глубина                          : 8 бит
Тип развёртки                            : Прогрессивная
Бит/(Пиксели*Кадры)                      : 0.116
Размер потока                            : 651 Мбайт (77%)
Default                                  : Да
Forced                                   : Нет
Цветовой диапазон                        : Limited
Основные цвета                           : BT.601 PAL
Характеристики трансфера                 : BT.470 System B, BT.470 System G
Коэффициенты матрицы                     : BT.601

Аудио #1
Идентификатор                            : 2
Формат                                   : MPEG Audio
Версия формата                           : Version 1
Профиль формата                          : Layer 3
Идентификатор кодека                     : A_MPEG/L3
Идентификатор кодека/Подсказка           : MP3
Продолжительность                        : 1 ч. 17 м.
Вид битрейта                             : Постоянный
Битрейт                                  : 192 Кбит/сек
Каналы                                   : 2 канала
Частота                                  : 48,0 КГц
Метод сжатия                             : С потерями
Размер потока                            : 107 Мбайт (13%)
Язык                                     : Russian
Default                                  : Да
Forced                                   : Нет

Аудио #2
Идентификатор                            : 3
Формат                                   : MPEG Audio
Версия формата                           : Version 1
Профиль формата                          : Layer 3
Идентификатор кодека                     : A_MPEG/L3
Идентификатор кодека/Подсказка           : MP3
Продолжительность                        : 1 ч. 17 м.
Вид битрейта                             : Постоянный
Битрейт                                  : 128 Кбит/сек
Каналы                                   : 2 канала
Частота                                  : 44,1 КГц
Метод сжатия                             : С потерями
Размер потока                            : 71,2 Мбайт (8%)
Язык                                     : Lithuanian
Default                                  : Нет
Forced                                   : Нет

Текст
Идентификатор                            : 4
Формат                                   : UTF-8
Идентификатор кодека                     : S_TEXT/UTF8
Идентификатор кодека/Информация          : UTF-8 Plain Text
Язык                                     : Russian
Default                                  : Да
Forced                                   : Нет
Перевод: Оксана Добрыня
Озвучивание: проект Levelin
Cоздание субтитров и организация релиза: Minhers76
Благодарность johnnyleo за самое деятельное участие в проекте
Релиз:
picpicpicpicpic
Для увеличения картинки щелкните мышкой по превью

Этот торрент недоступен для скачивания без регистрации, однако доступен по публичной magnet-ссылке (источники с публичных трекеров). Перед использованием ссылки прочтите, пожалуйста Пользовательское соглашение, а также как можно дольше оставайтесь на раздаче! Для того, чтобы скачать сам торрент-файл (который видит больше источников), а также для того, чтобы поблагодарить релизера, вам необходимо зарегистрироваться. Если регистрироваться лень - вы можете также попробовать скачать релиз по нашим партнерским ссылкам ниже.

[underverse.su].t73787.torrent
Трекер: Зарегистрирован   [ 16.11.2016 13:57 ]  

Статус: проверено (by makkol at 16.11.2016 13:57)
Поблагодарили: пока никто не поблагодарил...
Тип торрента: публичный - доступные источники с открытых трекеров: 
Размер: 846 MB (занимает 0,19 DVDR, для записи нужно 1 болванка DVDR/RW)
 
 

Яндекс.Метрика powered by Sphinx


В Н И М А Н И Е
Сайт не распространяет и не хранит электронные версии произведений, а лишь бесплатно и без коммерческой выгоды (не требуя взамен платы,
SMS и т.д.) предоставляет доступ к создаваемому пользователями каталогу ссылок на торрент-файлы, которые содержат только списки хеш-сумм.
Убедительная просьба с жалобами обращаться напрямую к пользователю, разместившему торрент файл.

Вверх