Loading...
Error

Войны за моллюсков / Dive Wars Australia (3 сезон: 1-3 серии из 3) [2015 г., документальный, приключения, HDTVRip] VO

Статистика раздачи
Размер:  1,6 GB   |    Зарегистрирован:  23 дня   |    Скачан:  0 раз

Полного источника не было: 22 дня

Сидов:  0  |  0 KB/s  ]   Личеров:  0  |  0 KB/s  ]

* - сиды/пиры с внешних источников

   
 
Автор Сообщение

ARI71 Пол:Муж

15-Ноя-2016 16:43

Войны за моллюсков / Dive Wars Australia (3 сезон: 1-3 серии из 3)


Год выпуска: 2015
Жанр: документальный, приключения
Страна: Австралия Discovery Channel
Сюжет фильма:
В экстремальном проекте под названием «Войны за моллюсков» на познавательном телеканале Discovery пойдет речь об очень редких представителях океанской фауны. Раковины, рожденные в дикой среде имеют гораздо большую ценность, нежели выросшие на искусственных фермах. Например, австралийские морские ушки, или как еще их называют, абалоны, добываются очень непросто. У южного побережья материка обитает большая популяция акул, но это не отпугивает ныряльщиков за дорогими жемчужными раковинами. Постоянно, не смотря на коварство зубатых хищниц и непредсказуемые штормовые ветры, эти отчаянные люди погружаются в глубины океана, лишь бы собрать в них богатый улов этих ценных моллюсков. Нередко им приходится выжидать подходящую погоду, и длиться вынужденный перерыв может неделями. Как сделать так, чтобы бизнес не потерпел крах, и заодно избежать смертельной опасности? Необходима не только невероятная смелость, но и изобретательность…
Качество видео: HDTVRip

Продолжительность: 3 x ~ 00:44:00
Формат: AVI
Видео: XviD, 720x400, ~1540 kbps
Аудио: русский, одноголосый [профессиональный], AC3 2.0, ~192.00 kbps
(тех. данные всех серий идентичны)

Код:

Общее
Полное имя : D:\Войны за моллюсков s03 HitWay\01 Войны за моллюсков hitway.net.avi
Формат : AVI
Формат/Информация : Audio Video Interleave
Размер файла : 548 Мбайт
Продолжительность : 43 м.
Общий поток : 1743 Кбит/сек
Программа кодирования : VirtualDubMod 1.5.10.3 | www.virtualdub-fr.org || (build 2550/release)
Библиотека кодирования : VirtualDubMod build 2550/release

Видео
Идентификатор : 0
Формат : MPEG-4 Visual
Профиль формата : Advanced Simple@L5
Параметр BVOP формата : 1
Параметр QPel формата : Нет
Параметр GMC формата : Без точки перехода
Параметр матрицы формата : Выборочная
Идентификатор кодека : XVID
Идентификатор кодека/Подсказка : XviD
Продолжительность : 43 м.
Битрейт : 1540 Кбит/сек
Ширина : 720 пикселей
Высота : 400 пикселей
Соотношение сторон : 16:9
Частота кадров : 30,000 кадров/сек
Цветовое пространство : YUV
Субдискретизация насыщенности : 4:2:0
Битовая глубина : 8 бит
Тип развёртки : Прогрессивная
Метод сжатия : С потерями
Бит/(Пиксели*Кадры) : 0.178
Размер потока : 484 Мбайт (88%)
Библиотека кодирования : XviD 73

Аудио
Идентификатор : 1
Формат : AC-3
Формат/Информация : Audio Coding 3
Расширение режима : CM (complete main)
Параметр Endianness формата : Big
Идентификатор кодека : 2000
Продолжительность : 43 м.
Вид битрейта : Постоянный
Битрейт : 192 Кбит/сек
Каналы : 2 канала
Расположение каналов : Front: L R
Частота : 48,0 КГц
Частота кадров : 31,250 кадров/сек (1536 spf)
Метод сжатия : С потерями
Размер потока : 60,3 Мбайт (11%)
Выравнивание : Разделение по промежуткам
Продолжительность промежутка : 33 мс. (1,00 видеокадр)
Время предзагрузки промежутка : 500 мс.
picpicpicpic
Для увеличения картинки щелкните мышкой по превью

Этот торрент недоступен для скачивания без регистрации, однако доступен по публичной magnet-ссылке (источники с публичных трекеров). Перед использованием ссылки прочтите, пожалуйста Пользовательское соглашение, а также как можно дольше оставайтесь на раздаче! Для того, чтобы скачать сам торрент-файл (который видит больше источников), а также для того, чтобы поблагодарить релизера, вам необходимо зарегистрироваться. Если регистрироваться лень - вы можете также попробовать скачать релиз по нашим партнерским ссылкам ниже.

[underverse.su].t73698.torrent
Трекер: Зарегистрирован   [ 15.11.2016 16:43 ]  

Статус: проверено (by ARI71 at 15.11.2016 16:47)
Поблагодарили: пока никто не поблагодарил...
Тип торрента: публичный - доступные источники с открытых трекеров: 
Размер: 1,6 GB (занимает 0,37 DVDR, для записи нужно 1 болванка DVDR/RW)
 
 
Похожие темы
Форум Тема Автор Торрент Отв. Посл. сооб.
Discovery Войны за моллюсков / Dive Wars Australia (2 сезон: 1-3 серии) [2014 г., документальный, научно-популярный, HDTVRip 720p] VO ARI71
1 | 0

0 | 495

1

10.09.2016 08:43


Яндекс.Метрика powered by Sphinx


В Н И М А Н И Е
Сайт не распространяет и не хранит электронные версии произведений, а лишь бесплатно и без коммерческой выгоды (не требуя взамен платы,
SMS и т.д.) предоставляет доступ к создаваемому пользователями каталогу ссылок на торрент-файлы, которые содержат только списки хеш-сумм.
Убедительная просьба с жалобами обращаться напрямую к пользователю, разместившему торрент файл.

Вверх