Loading...
Error

(Pop, Schlager, Ballad) Александр Малинин - Выбираю тебя (2015) [FLAC (Image+.Cue), Lossless]

Статистика раздачи
Размер:  346 MB   |    Зарегистрирован:  1 год 10 месяцев   |    Скачан:  5 раз

Полного источника не было: 13 дней

Сидов:  0  |  0 KB/s  ]   Личеров:  0  |  0 KB/s  ]

* - сиды/пиры с внешних источников

   
 
Автор Сообщение

Бишеп Пол:Муж

14-Ноя-2016 06:18

Александр Малинин - Выбираю тебя

Жанр: Pop, Schlager, Ballad
Год выпуска: 2015
Источник: CD
Производитель диска: Квадро-Диск, United Music Group - UMGCD14-368
Аудиокодек: FLAC
Тип рипа: Image+.CUE
Битрейт аудио: lossless
Продолжительность: 00:51:07


Треклист:
01. Дорогой длинною (3:40)
02. Дон (5:02)
03. Две души (дуэт с Е.Ваенгой) (3:37)
04. Кони (3:31)
05. Снежный вальс (2:54)
06. Прости (дуэт с Д.Гурцкой)(4:04)
07. Кто послал мне тебя (4:05)
08. Сизари (3:56)
09. Просто останься (3:59)
10. Ночная мания (3:07)
11. Милая, нежная (3:31)
12. Я хочу (3:16)
13. Ягодка (2:48)
14. Выбираю тебя (3:38)

Код:

Exact Audio Copy V1.0 beta 4 from 7. December 2014

Отчёт EAC об извлечении, выполненном 10. марта 2015, 23:01

Александр Малинин / Выбираю тебя

Дисковод: ASUS    DRW-24B3ST   Adapter: 3  ID: 0

Режим чтения                 : Достоверность
Использование точного потока : Да
Отключение кэша аудио        : Да
Использование указателей C2  : Нет

Коррекция смещения при чтении                     : 6
Способность читать области Lead-in и Lead-out     : Нет
Заполнение пропущенных сэмплов тишиной            : Да
Удаление блоков с тишиной в начале и конце        : Нет
При вычислениях CRC использовались нулевые сэмплы : Да
Интерфейс                                         : Установленный внешний ASPI-интерфейс

Выходной формат : Внутренние WAV-операции
Формат сэмплов  : 44.100 Гц; 16 бит; стерео

TOC извлечённого CD

     Трек |   Старт  | Длительность | Начальный сектор | Конечный сектор
    ---------------------------------------------------------------------
       1  |  0:00.00 |    3:39.51   |           0      |      16475     
       2  |  3:39.51 |    5:01.47   |       16476      |      39097     
       3  |  8:41.23 |    3:36.71   |       39098      |      55368     
       4  | 12:18.19 |    3:31.35   |       55369      |      71228     
       5  | 15:49.54 |    2:54.19   |       71229      |      84297     
       6  | 18:43.73 |    4:03.52   |       84298      |     102574     
       7  | 22:47.50 |    4:04.40   |      102575      |     120914     
       8  | 26:52.15 |    3:56.17   |      120915      |     138631     
       9  | 30:48.32 |    3:58.54   |      138632      |     156535     
      10  | 34:47.11 |    3:06.59   |      156536      |     170544     
      11  | 37:53.70 |    3:31.32   |      170545      |     186401     
      12  | 41:25.27 |    3:16.02   |      186402      |     201103     
      13  | 44:41.29 |    2:47.59   |      201104      |     213687     
      14  | 47:29.13 |    3:37.72   |      213688      |     230034     

Характеристики диапазона извлечения и сообщения об ошибках

Выбранный диапазон

     Имя файла C:\vlad victorovich\Александр Малинин - Выбираю тебя\Александр Малинин - Выбираю тебя.wav

     Пиковый уровень 92.9 %
     Скорость извлечения 3.2 X
     Качество диапазона 100.0 %
     CRC теста A027B868
     CRC копии A027B868
     Копирование... OK

Ошибок не произошло

 
AccurateRip: сводка
 
Трек  1  отсутствует в базе данных
Трек  2  отсутствует в базе данных
Трек  3  отсутствует в базе данных
Трек  4  отсутствует в базе данных
Трек  5  отсутствует в базе данных
Трек  6  отсутствует в базе данных
Трек  7  отсутствует в базе данных
Трек  8  отсутствует в базе данных
Трек  9  отсутствует в базе данных
Трек 10  отсутствует в базе данных
Трек 11  отсутствует в базе данных
Трек 12  отсутствует в базе данных
Трек 13  отсутствует в базе данных
Трек 14  отсутствует в базе данных
 
Ни одного трека нет в базе AccurateRip

Конец отчёта

==== Контрольная сумма отчёта 0C90E07A5ED14AA452D3F5CF338053BA9BBA2AD4BAF8B9B57ABB36EF166AC8D9 ====

Код:

REM GENRE Chanson
REM DATE 2014
REM DISCID BC0BFB0E
REM COMMENT "ExactAudioCopy v1.0b4"
PERFORMER "Александр Малинин"
TITLE "Выбираю тебя"
FILE "Александр Малинин - Выбираю тебя.flac" WAVE
  TRACK 01 AUDIO
    TITLE "Дорогой длинною"
    PERFORMER "Александр Малинин"
    INDEX 01 00:00:00
  TRACK 02 AUDIO
    TITLE "Дон"
    PERFORMER "Александр Малинин"
    INDEX 01 03:39:51
  TRACK 03 AUDIO
    TITLE "Две души"
    PERFORMER "Александр Малинин"
    INDEX 01 08:41:23
  TRACK 04 AUDIO
    TITLE "Кони"
    PERFORMER "Александр Малинин"
    INDEX 01 12:18:19
  TRACK 05 AUDIO
    TITLE "Снежный вальс"
    PERFORMER "Александр Малинин"
    INDEX 01 15:49:54
  TRACK 06 AUDIO
    TITLE "Прости"
    PERFORMER "Александр Малинин"
    INDEX 01 18:43:73
  TRACK 07 AUDIO
    TITLE "Кто послал мне тебя"
    PERFORMER "Александр Малинин"
    INDEX 01 22:47:50
  TRACK 08 AUDIO
    TITLE "Сизари"
    PERFORMER "Александр Малинин"
    INDEX 01 26:52:15
  TRACK 09 AUDIO
    TITLE "Просто останься"
    PERFORMER "Александр Малинин"
    INDEX 01 30:48:32
  TRACK 10 AUDIO
    TITLE "Ночная мания"
    PERFORMER "Александр Малинин"
    INDEX 01 34:47:11
  TRACK 11 AUDIO
    TITLE "Милая, нежная"
    PERFORMER "Александр Малинин"
    INDEX 01 37:53:70
  TRACK 12 AUDIO
    TITLE "Я хочу"
    PERFORMER "Александр Малинин"
    INDEX 01 41:25:27
  TRACK 13 AUDIO
    TITLE "Ягодка"
    PERFORMER "Александр Малинин"
    INDEX 01 44:41:29
  TRACK 14 AUDIO
    TITLE "Выбираю тебя"
    PERFORMER "Александр Малинин"
    INDEX 01 47:29:13

Этот торрент недоступен для скачивания без регистрации, однако доступен по публичной magnet-ссылке (источники с публичных трекеров). Перед использованием ссылки прочтите, пожалуйста Пользовательское соглашение, а также как можно дольше оставайтесь на раздаче! Для того, чтобы скачать сам торрент-файл (который видит больше источников), а также для того, чтобы поблагодарить релизера, вам необходимо зарегистрироваться. Если регистрироваться лень - вы можете также попробовать скачать релиз по нашим партнерским ссылкам ниже. Кроме того, зарегистрированным пользователям не показывается всплывающая реклама при скачивании.

[underverse.su].t73552.torrent
Трекер: Зарегистрирован   [ 14.11.2016 06:32 ]  

Статус: проверено (by Бишеп at 14.11.2016 06:32)
Поблагодарили: пока никто не поблагодарил...
Тип торрента: публичный - доступные источники с открытых трекеров: 
Размер: 346 MB (занимает 0,08 DVDR, для записи нужно 1 болванка DVDR/RW)
 
 
Похожие темы
Форум Тема Автор Торрент Отв. Посл. сооб.
Зарубежная Pop Музыка (Pop, Schlager) Franziska - Herrlich unperfekt [Deluxe Edition] (2018) [MP3, 320 kbps CBR] 90ytr90
3 | 0

0 | 120

1

05.08.2018 09:54

Зарубежная Pop Музыка (Pop, Schlager) Michael Wendler - Next Level (2018) [MP3, 320 kbps CBR] 90ytr90
2 | 0

0 | 68

0

05.08.2018 10:01


Яндекс.Метрика powered by Sphinx


В Н И М А Н И Е
Сайт не распространяет и не хранит электронные версии произведений, а лишь бесплатно и без коммерческой выгоды (не требуя взамен платы,
SMS и т.д.) предоставляет доступ к создаваемому пользователями каталогу ссылок на торрент-файлы, которые содержат только списки хеш-сумм.
Убедительная просьба с жалобами обращаться напрямую к пользователю, разместившему торрент файл.

Вверх