Loading...
Error

Живой свет с Дэвидом Аттенборо. Биолюминесценция / David Attenborough’s Light on Earth (Life That Glows) / (Джо Лонкрейн) [2016 г., документальный, научно-популярный, фауна, флора, HDTVRip] VO

Статистика раздачи
Размер:  672 MB   |    Зарегистрирован:  26 дней   |    Скачан:  1 раз

Полного источника не было: 8 дней

Сидов:  0  |  0 KB/s  ]   Личеров:  0  |  0 KB/s  ]

* - сиды/пиры с внешних источников

   
 
Автор Сообщение

ARI71 Пол:Муж

13-Ноя-2016 21:44

Живой свет с Дэвидом Аттенборо. Биолюминесценция / David Attenborough’s Light on Earth (Life That Glows)


Год выпуска: 2016
Жанр: документальный, научно-популярный, фауна, флора
Страна: Великобритания , Германия Ammonite Films, Terra Mater Factual Studios and ABC Australia
Режиссер: Джо Лонкрейн
Ведущий: сэр Дэвид Аттенборо
Сюжет фильма:
Биолюминесценция во многом загадочное явление. Ученые обнаруживают по всему миру множество удивительных живых существ, способных излучать свет. А открытие все большего количества странных светящихся созданий, порождает еще большее количество вопросов. Почему, для чего и каким образом они производят этот свет? В последние годы ученые начали находить ответы на эти вопросы. Таким образом, они открывают для нас мир, совсем не похожий на тот, к которому мы привыкли. В воде и на суше многие виды животных овладели силой света для самых разных целей: для размножения, охоты и даже для маскировки. С помощью новых камер, одна из которых была создана специально для этого фильма, мы можем более подробно исследовать эти поразительные явления.


Качество видео: HDTVRip

Продолжительность: 00:51:25
Формат: AVI
Видео: XviD, 720x400, 1626 kbps
Аудио: русский, одноголосый [профессиональный], AC3 2.0, 192.00 kbps

Автор Rip'а: DarknesS93

Код:

Общее
Полное имя : D:\BBC_Attenboroughs_Life That Glows.HDTVRip.by RockeT [KaztorrentS].avi
Формат : AVI
Формат/Информация : Audio Video Interleave
Размер файла : 672 Мбайт
Продолжительность : 51 м.
Общий поток : 1827 Кбит/сек
Программа кодирования : VirtualDubMod 1.5.10.3 | www.virtualdub-fr.org || (build 2550/release)
Библиотека кодирования : VirtualDubMod build 2550/release

Видео
Идентификатор : 0
Формат : MPEG-4 Visual
Профиль формата : Advanced Simple@L5
Параметр BVOP формата : 1
Параметр QPel формата : Нет
Параметр GMC формата : Без точки перехода
Параметр матрицы формата : Default (MPEG)
Идентификатор кодека : XVID
Идентификатор кодека/Подсказка : XviD
Продолжительность : 51 м.
Битрейт : 1626 Кбит/сек
Ширина : 720 пикселей
Высота : 400 пикселей
Соотношение сторон : 16:9
Частота кадров : 25,000 кадров/сек
Цветовое пространство : YUV
Субдискретизация насыщенности : 4:2:0
Битовая глубина : 8 бит
Тип развёртки : Прогрессивная
Метод сжатия : С потерями
Бит/(Пиксели*Кадры) : 0.226
Размер потока : 598 Мбайт (89%)
Библиотека кодирования : XviD 1.2.1 (UTC 2008-12-04)

Аудио
Идентификатор : 1
Формат : AC-3
Формат/Информация : Audio Coding 3
Расширение режима : CM (complete main)
Параметр Endianness формата : Big
Идентификатор кодека : 2000
Продолжительность : 51 м.
Вид битрейта : Постоянный
Битрейт : 192 Кбит/сек
Каналы : 2 канала
Расположение каналов : Front: L R
Частота : 48,0 КГц
Частота кадров : 31,250 кадров/сек (1536 spf)
Метод сжатия : С потерями
Размер потока : 70,6 Мбайт (11%)
Выравнивание : Разделение по промежуткам
Продолжительность промежутка : 40 мс. (1,00 видеокадр)
Время предзагрузки промежутка : 500 мс.
picpicpicpicpic
Для увеличения картинки щелкните мышкой по превью

Этот торрент недоступен для скачивания без регистрации, однако доступен по публичной magnet-ссылке (источники с публичных трекеров). Перед использованием ссылки прочтите, пожалуйста Пользовательское соглашение, а также как можно дольше оставайтесь на раздаче! Для того, чтобы скачать сам торрент-файл (который видит больше источников), а также для того, чтобы поблагодарить релизера, вам необходимо зарегистрироваться. Если регистрироваться лень - вы можете также попробовать скачать релиз по нашим партнерским ссылкам ниже.

[underverse.su].t73541.torrent
Трекер: Зарегистрирован   [ 13.11.2016 21:44 ]  

Статус: проверено (by ARI71 at 13.11.2016 21:47)
Поблагодарили: пока никто не поблагодарил...
Тип торрента: публичный - доступные источники с открытых трекеров: 
Размер: 672 MB (занимает 0,15 DVDR, для записи нужно 1 болванка DVDR/RW)
 
 
Похожие темы
Форум Тема Автор Торрент Отв. Посл. сооб.
Научно-популярные фильмы Живой свет с Дэвидом Аттенборо. Биолюминесценция / David Attenborough’s Light on Earth (Life That Glows) / (Джо Лонкрейн) [2016 г., документальный, научно-популярный, фауна, флора, HDTVRip 720p] VO +... ARI71
2 | 0

1 | 268

2

13.11.2016 09:40

ARI71 Пол:Муж

13-Ноя-2016 21:49

Приятного всем просмотра!

Голосуй за трекер!!




Яндекс.Метрика powered by Sphinx


В Н И М А Н И Е
Сайт не распространяет и не хранит электронные версии произведений, а лишь бесплатно и без коммерческой выгоды (не требуя взамен платы,
SMS и т.д.) предоставляет доступ к создаваемому пользователями каталогу ссылок на торрент-файлы, которые содержат только списки хеш-сумм.
Убедительная просьба с жалобами обращаться напрямую к пользователю, разместившему торрент файл.

Вверх