Loading...
Error

Юпитер: близкий контакт / Jupiter: Close Encounter (Аликс Макдональд) [2016 г., документальный, научно-популярный, космос, HDTVRip 720p] VO (Кирилица)

Статистика раздачи
Размер:  985 MB   |    Зарегистрирован:  24 дня   |    Скачан:  5 раз

Полного источника не было: 20 часов

Сидов:  0  |  0 KB/s  ]   Личеров:  0  |  0 KB/s  ]

* - сиды/пиры с внешних источников

   
 
Автор Сообщение

ARI71 Пол:Муж

12-Ноя-2016 08:52

Юпитер: близкий контакт / Jupiter: Close Encounter


Год выпуска: 2016
Жанр: документальный, научно-популярный, космос
Страна: Канада Exploration Production Inc., Bell Media
Режиссер: Аликс Макдональд
Ведущий: Дэн Рискин
Текст читает: Илья Сланевский
Сюжет фильма:
Поможет ли Юпитер раскрыть секреты формирования Земли? НАСА отправило космический аппарат на самую близкую, за всю историю, орбиту Юпитера. Теперь "Юнона" один на один с самой свирепой планетой в Солнечной системе. "Юнона" - добро пожаловать на Юпитер! Эти слова произнёс Дэн Рискин находясь в Лаборатории реактивного движения НАСА (JPL) в Пасадене, штат Калифорния, где инженеров и конструкторов космического аппарата "Юнона" переполняют эмоции. Только что был совершен рискованный маневр и "Юнона" прошла через смертельную атмосферу Юпитера, настолько плотную, что её можно резать ножом и вышла на орбиту.
Узнайте, какие тайны скрываются под смертельно опасными для космических аппаратов облаками этой исполинской планеты.
Качество видео: HDTVRip 720p

Продолжительность: 00:43:10
Формат: MKV
Видео: AVC (x264), 1280x720, 3000 kbps
Аудио: русский, одноголосый [профессиональный, Кирилица], AC3 2.0, 192.00 kbps

Автор рипа: skorpionN

Код:

Общее
Уникальный идентификатор : 195980301969418458654510028629458293761 (0x93706EE6AC5EE589B81E09BC49DC1401)
Полное имя : D:\Discovery_Jupiter_Close Encounter_720p.mkv
Формат : Matroska
Версия формата : Version 4 / Version 2
Размер файла : 985 Мбайт
Продолжительность : 43 м.
Режим общего битрейта : Переменный
Общий поток : 3191 Кбит/сек
Дата кодирования : UTC 2016-11-11 19:00:34
Программа кодирования : mkvmerge v7.3.0 ('Nouages') 64bit built on Oct 22 2014 18:53:34
Библиотека кодирования : libebml v1.3.0 + libmatroska v1.4.1

Видео
Идентификатор : 1
Формат : AVC
Формат/Информация : Advanced Video Codec
Профиль формата : High@L4.1
Параметр CABAC формата : Да
Параметр ReFrames формата : 3 кадра
Идентификатор кодека : V_MPEG4/ISO/AVC
Продолжительность : 43 м.
Вид битрейта : Переменный
Битрейт : 3000 Кбит/сек
Максимальный битрейт : 8000 Кбит/сек
Ширина : 1280 пикселей
Высота : 720 пикселей
Соотношение сторон : 16:9
Режим частоты кадров : Постоянный
Частота кадров : 29,970 (30000/1001) кадров/сек
Стандарт вещания : NTSC
Цветовое пространство : YUV
Субдискретизация насыщенности : 4:2:0
Битовая глубина : 8 бит
Тип развёртки : Прогрессивная
Бит/(Пиксели*Кадры) : 0.109
Размер потока : 925 Мбайт (94%)
Библиотека кодирования : x264 core 114
Настройки программы : cabac=1 / ref=3 / deblock=1:0:0 / analyse=0x3:0x113 / me=hex / subme=7 / psy=1 / psy_rd=1.00:0.00 / mixed_ref=1 / me_range=16 / chroma_me=1 / trellis=1 / 8x8dct=1 / cqm=2 / deadzone=21,11 / fast_pskip=1 / chroma_qp_offset=-4 / threads=6 / sliced_threads=0 / slices=1 / nr=0 / decimate=1 / interlaced=0 / constrained_intra=0 / bframes=3 / b_pyramid=0 / b_adapt=1 / b_bias=0 / direct=1 / weightb=1 / open_gop=0 / weightp=2 / keyint=250 / keyint_min=25 / scenecut=40 / intra_refresh=0 / rc_lookahead=40 / rc=2pass / mbtree=1 / bitrate=3000 / ratetol=1.0 / qcomp=0.60 / qpmin=5 / qpmax=69 / qpstep=4 / cplxblur=20.0 / qblur=0.5 / vbv_maxrate=8000 / vbv_bufsize=7995 / nal_hrd=vbr / ip_ratio=1.40 / aq=1:1.00
Default : Да
Forced : Нет
Цветовой диапазон : Limited
Основные цвета : BT.709
Характеристики трансфера : BT.709
Коэффициенты матрицы : BT.709

Аудио
Идентификатор : 2
Формат : AC-3
Формат/Информация : Audio Coding 3
Расширение режима : CM (complete main)
Параметр Endianness формата : Big
Идентификатор кодека : A_AC3
Продолжительность : 43 м.
Вид битрейта : Постоянный
Битрейт : 192 Кбит/сек
Каналы : 2 канала
Расположение каналов : Front: L R
Частота : 48,0 КГц
Частота кадров : 31,250 кадров/сек (1536 spf)
Метод сжатия : С потерями
Размер потока : 59,3 Мбайт (6%)
Default : Да
Forced : Нет
picpicpicpicpic
Для увеличения картинки щелкните мышкой по превью

Этот торрент недоступен для скачивания без регистрации, однако доступен по публичной magnet-ссылке (источники с публичных трекеров). Перед использованием ссылки прочтите, пожалуйста Пользовательское соглашение, а также как можно дольше оставайтесь на раздаче! Для того, чтобы скачать сам торрент-файл (который видит больше источников), а также для того, чтобы поблагодарить релизера, вам необходимо зарегистрироваться. Если регистрироваться лень - вы можете также попробовать скачать релиз по нашим партнерским ссылкам ниже.

[underverse.su].t73367.torrent
Трекер: Зарегистрирован   [ 12.11.2016 08:52 ]  

Статус: проверено (by ARI71 at 12.11.2016 08:54)
Поблагодарили: 1 человек
Тип торрента: публичный - доступные источники с открытых трекеров: 
Размер: 985 MB (занимает 0,22 DVDR, для записи нужно 1 болванка DVDR/RW)
 
 

ARI71 Пол:Муж

12-Ноя-2016 08:54

Приятного всем просмотра!

Голосуй за трекер!!




Яндекс.Метрика powered by Sphinx


В Н И М А Н И Е
Сайт не распространяет и не хранит электронные версии произведений, а лишь бесплатно и без коммерческой выгоды (не требуя взамен платы,
SMS и т.д.) предоставляет доступ к создаваемому пользователями каталогу ссылок на торрент-файлы, которые содержат только списки хеш-сумм.
Убедительная просьба с жалобами обращаться напрямую к пользователю, разместившему торрент файл.

Вверх