Loading...
Error

Наша рыбалка. Судак на Каневском водохранилище (Борис Саксонов) [2012 г., документальный, рыбалка, WEBRip]

Статистика раздачи
Размер:  249 MB   |    Зарегистрирован:  21 день   |    Скачан:  1 раз

Полного источника не было: 20 дней

Сидов:  0  |  0 KB/s  ]   Личеров:  0  |  0 KB/s  ]

* - сиды/пиры с внешних источников

   
 
Автор Сообщение

ARI71 Пол:Муж

11-Ноя-2016 13:42

Наша рыбалка. Судак на Каневском водохранилище


Год выпуска: 2012
Жанр: документальный, рыбалка
Страна: Украина "Piligreem Studio"
Режиссер: Борис Саксонов
В ролях: Борис Саксонов, Сергей Строй, Илья Игнатович
Сюжет фильма:
Фильм посвящен ловле судака на Каневском водохранилище, в период сразу по окончанию запрета на рыбную ловлю.
Качество видео: WEBRip

Продолжительность: 00:25:56
Формат: AVI
Видео: XviD, 720x480, 1202 kbps
Аудио: русский, (оригинал), MP3 2.0, 128.00 kbps

Код:

Общее
Полное имя : D:\Sudak.na.Kanevskom.vodoxranilizhe.2013.WebRip.avi
Формат : AVI
Формат/Информация : Audio Video Interleave
Размер файла : 249 Мбайт
Продолжительность : 25 м.
Общий поток : 1342 Кбит/сек
Программа кодирования : Lavf53.11.0

Видео
Идентификатор : 0
Формат : xvid
Идентификатор кодека : xvid
Продолжительность : 25 м.
Битрейт : 1202 Кбит/сек
Ширина : 720 пикселей
Высота : 480 пикселей
Соотношение сторон : 3:2
Частота кадров : 25,000 кадров/сек
Тип развёртки : Прогрессивная
Бит/(Пиксели*Кадры) : 0.139
Размер потока : 223 Мбайт (90%)

Аудио
Идентификатор : 1
Формат : MPEG Audio
Версия формата : Version 1
Профиль формата : Layer 3
Режим : Joint stereo
Расширение режима : MS Stereo
Идентификатор кодека : 55
Идентификатор кодека/Подсказка : MP3
Продолжительность : 25 м.
Вид битрейта : Постоянный
Битрейт : 128 Кбит/сек
Каналы : 2 канала
Частота : 44,1 КГц
Метод сжатия : С потерями
Размер потока : 23,8 Мбайт (10%)
Выравнивание : Соединение по промежуткам
Продолжительность промежутка : 26 мс. (0,65 видеокадр)
Библиотека кодирования : LAME3.98.4
picpicpicpic
Для увеличения картинки щелкните мышкой по превью

Этот торрент недоступен для скачивания без регистрации, однако доступен по публичной magnet-ссылке (источники с публичных трекеров). Перед использованием ссылки прочтите, пожалуйста Пользовательское соглашение, а также как можно дольше оставайтесь на раздаче! Для того, чтобы скачать сам торрент-файл (который видит больше источников), а также для того, чтобы поблагодарить релизера, вам необходимо зарегистрироваться. Если регистрироваться лень - вы можете также попробовать скачать релиз по нашим партнерским ссылкам ниже.

[underverse.su].t73280.torrent
Трекер: Зарегистрирован   [ 11.11.2016 13:42 ]  

Статус: проверено (by ARI71 at 11.11.2016 13:43)
Поблагодарили: пока никто не поблагодарил...
Тип торрента: публичный - доступные источники с открытых трекеров: 
Размер: 249 MB (занимает 0,06 DVDR, для записи нужно 1 болванка DVDR/RW)
 
 

ARI71 Пол:Муж

11-Ноя-2016 13:44

Приятного всем просмотра!

Голосуй за трекер!!




Яндекс.Метрика powered by Sphinx


В Н И М А Н И Е
Сайт не распространяет и не хранит электронные версии произведений, а лишь бесплатно и без коммерческой выгоды (не требуя взамен платы,
SMS и т.д.) предоставляет доступ к создаваемому пользователями каталогу ссылок на торрент-файлы, которые содержат только списки хеш-сумм.
Убедительная просьба с жалобами обращаться напрямую к пользователю, разместившему торрент файл.

Вверх