Loading...
Error

Фаворит языческого бога. Фидель Кастро (2 серии из 2) / (Алексей Панков) [2008 г., документальный, биография, история, политика, SatRip]

Статистика раздачи
Размер:  912 MB   |    Зарегистрирован:  22 дня   |    Скачан:  0 раз

Полного источника не было: 21 день

Сидов:  0  |  0 KB/s  ]   Личеров:  0  |  0 KB/s  ]

* - сиды/пиры с внешних источников

   
 
Автор Сообщение

ARI71 Пол:Муж

10-Ноя-2016 20:52

Фаворит языческого бога. Фидель Кастро (2 серии из 2)


Год выпуска: 2008
Жанр: документальный, биография, история, политика
Страна: Россия «Бегиннинг»
Режиссер: Алексей Панков
Сюжет фильма:
Фильм рассказывает о бурной юности Фиделя, о революции на Кубе и о попытках ЦРУ избавиться от молодого кубинца. Создатели фильма не обойдут стороной и частную жизнь легендарного команданте и расскажут о его гражданских женах и незаконнорожденных детях… Уникальные материалы КГБ и ЦРУ - в документальном фильме "Фаворит языческого бога".

Фиде́ль Алеха́ндро Ка́стро Рус (исп. Fidel Alejandro Castro Ruz; род. 13 августа 1926; Биран, провинция Орьенте, Куба) — кубинский революционер, государственный, политический и партийный деятель, руководитель Кубы в 1959—2011 годах.
Качество видео: SatRip

Продолжительность: 2 х ~00:39:00
Формат: AVI
Видео: XviD, 704x432, ~1498 kbps
Аудио: русский, (оригинал), MP3 2.0, ~128.00 kbps

Код:

Общее
Полное имя : D:\Фаворит языческого бога (DaVinci)\1. Фаворит языческого бога.avi
Формат : AVI
Формат/Информация : Audio Video Interleave
Размер файла : 456 Мбайт
Продолжительность : 38 м.
Общий поток : 1635 Кбит/сек
Библиотека кодирования : VirtualDub build 32842/release

Видео
Идентификатор : 0
Формат : MPEG-4 Visual
Профиль формата : Advanced Simple@L5
Параметр BVOP формата : 2
Параметр QPel формата : Нет
Параметр GMC формата : Без точки перехода
Параметр матрицы формата : Default (H.263)
Режим смешивания : Сжатый битовый поток
Идентификатор кодека : XVID
Идентификатор кодека/Подсказка : XviD
Продолжительность : 38 м.
Битрейт : 1498 Кбит/сек
Ширина : 704 пикселя
Высота : 432 пикселя
Соотношение сторон : 16:10
Частота кадров : 25,000 кадров/сек
Цветовое пространство : YUV
Субдискретизация насыщенности : 4:2:0
Битовая глубина : 8 бит
Тип развёртки : Прогрессивная
Метод сжатия : С потерями
Бит/(Пиксели*Кадры) : 0.197
Размер потока : 417 Мбайт (92%)
Библиотека кодирования : XviD 1.2.1 (UTC 2008-12-04)

Аудио
Идентификатор : 1
Формат : MPEG Audio
Версия формата : Version 1
Профиль формата : Layer 3
Режим : Joint stereo
Расширение режима : MS Stereo
Идентификатор кодека : 55
Идентификатор кодека/Подсказка : MP3
Продолжительность : 38 м.
Вид битрейта : Постоянный
Битрейт : 128 Кбит/сек
Каналы : 2 канала
Частота : 48,0 КГц
Метод сжатия : С потерями
Размер потока : 35,7 Мбайт (8%)
Выравнивание : Разделение по промежуткам
Продолжительность промежутка : 40 мс. (1,00 видеокадр)
Время предзагрузки промежутка : 500 мс.
picpicpicpicpic
Для увеличения картинки щелкните мышкой по превью

Этот торрент недоступен для скачивания без регистрации, однако доступен по публичной magnet-ссылке (источники с публичных трекеров). Перед использованием ссылки прочтите, пожалуйста Пользовательское соглашение, а также как можно дольше оставайтесь на раздаче! Для того, чтобы скачать сам торрент-файл (который видит больше источников), а также для того, чтобы поблагодарить релизера, вам необходимо зарегистрироваться. Если регистрироваться лень - вы можете также попробовать скачать релиз по нашим партнерским ссылкам ниже.

[underverse.su].t73181.torrent
Трекер: Зарегистрирован   [ 10.11.2016 20:52 ]  

Статус: проверено (by ARI71 at 10.11.2016 20:54)
Поблагодарили: пока никто не поблагодарил...
Тип торрента: публичный - доступные источники с открытых трекеров: 
Размер: 912 MB (занимает 0,2 DVDR, для записи нужно 1 болванка DVDR/RW)
 
 

Яндекс.Метрика powered by Sphinx


В Н И М А Н И Е
Сайт не распространяет и не хранит электронные версии произведений, а лишь бесплатно и без коммерческой выгоды (не требуя взамен платы,
SMS и т.д.) предоставляет доступ к создаваемому пользователями каталогу ссылок на торрент-файлы, которые содержат только списки хеш-сумм.
Убедительная просьба с жалобами обращаться напрямую к пользователю, разместившему торрент файл.

Вверх