Loading...
Error

Великая битва Александра Македонского / Alexander's Greatest Battle (Джереми Джеффс) [2009 г., документальный, путешествия, история, SatRip] VO (SDI Media)

Статистика раздачи
Размер:  626 MB   |    Зарегистрирован:  1 месяц   |    Скачан:  1 раз

Полного источника не было: 20 дней

Сидов:  0  |  0 KB/s  ]   Личеров:  0  |  0 KB/s  ]

* - сиды/пиры с внешних источников

   
 
Автор Сообщение

ARI71 Пол:Муж

10-Ноя-2016 10:17

Великая битва Александра Македонского / Alexander's Greatest Battle


Год выпуска: 2009
Жанр: документальный, путешествия, история
Страна: Великобритания ВВС Maya Vision International
Режиссер: Джереми Джеффс
Ведущий: Майкл Вуд
Текст читает: Роман Антонович
Сюжет фильма:
Мы отправляемся в путешествие по Сирии и Ираку, чтобы раскрыть тайну решающей битвы Александра Македонского против Персидской державы, состоявшейся в 331 году до нашей эры. Принято считать, что место сражения расположено вблизи города Эрбиль на севере Ирака, однако точное место установлено не было. При помощи клинописной глиняной таблички из Британского музея и древнеегипетского папируса удается пролить свет на ход событий, а реконструкция военной кампании помогает проследить путь Александра Македонского через Дамаск и Алеппо к реке Евфрат в Сирии.
Качество видео: SatRip

Продолжительность: 00:48:00
Формат: AVI
Видео: XviD, 704x400, 1622 kbps
Аудио: русский, одноголосый [профессиональный, SDI Media], MP3 2.0, 192.00 kbps

Код:

Общее
Полное имя : D:\Velikaja.bitva.Aleksandra.Makedonskogo.2009.SATRip.BigFANGroup.avi
Формат : AVI
Формат/Информация : Audio Video Interleave
Размер файла : 626 Мбайт
Продолжительность : 48 м.
Общий поток : 1823 Кбит/сек
Программа кодирования : VirtualDubMod 1.5.10.3 | www.virtualdub-fr.org || (build 2550/release)
Библиотека кодирования : VirtualDubMod build 2550/release

Видео
Идентификатор : 0
Формат : MPEG-4 Visual
Профиль формата : Advanced Simple@L5
Параметр BVOP формата : 2
Параметр QPel формата : Нет
Параметр GMC формата : Без точки перехода
Параметр матрицы формата : Default (H.263)
Режим смешивания : Сжатый битовый поток
Идентификатор кодека : XVID
Идентификатор кодека/Подсказка : XviD
Продолжительность : 48 м.
Битрейт : 1622 Кбит/сек
Ширина : 704 пикселя
Высота : 400 пикселей
Соотношение сторон : 16:9
Частота кадров : 25,000 кадров/сек
Цветовое пространство : YUV
Субдискретизация насыщенности : 4:2:0
Битовая глубина : 8 бит
Тип развёртки : Прогрессивная
Метод сжатия : С потерями
Бит/(Пиксели*Кадры) : 0.230
Размер потока : 557 Мбайт (89%)
Библиотека кодирования : XviD 1.2.1 (UTC 2008-12-04)

Аудио
Идентификатор : 1
Формат : MPEG Audio
Версия формата : Version 1
Профиль формата : Layer 3
Режим : Joint stereo
Расширение режима : MS Stereo
Идентификатор кодека : 55
Идентификатор кодека/Подсказка : MP3
Продолжительность : 48 м.
Вид битрейта : Постоянный
Битрейт : 192 Кбит/сек
Каналы : 2 канала
Частота : 48,0 КГц
Метод сжатия : С потерями
Размер потока : 65,9 Мбайт (11%)
Выравнивание : Соединение по промежуткам
Продолжительность промежутка : 40 мс. (1,00 видеокадр)
Время предзагрузки промежутка : 504 мс.
Библиотека кодирования : LAME3.98r
Настройки программы : -m j -V 4 -q 2 -lowpass 18.6 -b 192
picpicpicpicpic
Для увеличения картинки щелкните мышкой по превью

Этот торрент недоступен для скачивания без регистрации, однако доступен по публичной magnet-ссылке (источники с публичных трекеров). Перед использованием ссылки прочтите, пожалуйста Пользовательское соглашение, а также как можно дольше оставайтесь на раздаче! Для того, чтобы скачать сам торрент-файл (который видит больше источников), а также для того, чтобы поблагодарить релизера, вам необходимо зарегистрироваться. Если регистрироваться лень - вы можете также попробовать скачать релиз по нашим партнерским ссылкам ниже.

[underverse.su].t73132.torrent
Трекер: Зарегистрирован   [ 10.11.2016 10:17 ]  

Статус: проверено (by ARI71 at 10.11.2016 10:19)
Поблагодарили: пока никто не поблагодарил...
Тип торрента: публичный - доступные источники с открытых трекеров: 
Размер: 626 MB (занимает 0,14 DVDR, для записи нужно 1 болванка DVDR/RW)
 
 
Похожие темы
Форум Тема Автор Торрент Отв. Посл. сооб.
BBC Великая битва Александра Македонского / Alexander's Greatest Battle (Джереми Джеффс) [2009 г., документальный, история, исследования, HDTVRip] Dub (SDI Media) ARI71
24 | 0

1 | 252

0

02.11.2016 08:03


Яндекс.Метрика powered by Sphinx


В Н И М А Н И Е
Сайт не распространяет и не хранит электронные версии произведений, а лишь бесплатно и без коммерческой выгоды (не требуя взамен платы,
SMS и т.д.) предоставляет доступ к создаваемому пользователями каталогу ссылок на торрент-файлы, которые содержат только списки хеш-сумм.
Убедительная просьба с жалобами обращаться напрямую к пользователю, разместившему торрент файл.

Вверх