Loading...
Error

Тайны материи. Поиски элементов / The Mystery of Matter: Search for the Elements (1 сезон: 3 серии из 3) / (Стивен Лайонс) [2014 г., документальный, игровой, история, HDTVRip 720p] DVO + Original (Eng)

Статистика раздачи
Размер:  4,96 GB   |    Зарегистрирован:  24 дня   |    Скачан:  0 раз

Полного источника не было: 21 день

Сидов:  0  |  0 KB/s  ]   Личеров:  0  |  0 KB/s  ]

* - сиды/пиры с внешних источников

   
 
Автор Сообщение

ARI71 Пол:Муж

09-Ноя-2016 12:24

Тайны материи. Поиски элементов / The Mystery of Matter: Search for the Elements (1 сезон: 3 серии из 3)


Год выпуска: 2014
Жанр: документальный, игровой, история
Страна: США Moreno / Lyons Productions
Режиссер: Стивен Лайонс
Ведущий: актер Майкл Эмерсон
Сюжет фильма:
Люди, по своей природе, любознательны. А сотни лет назад материя была неразрешимой загадкой. И люди задались вопросом: "Что это за материал из которого создан наш мир?"
Вместе с лауреатом премии «Эмми» актером Майклом Эмерсоном мы отправимся в путешествие сквозь время, услышим рассказ о самых выдающихся ученых и о том, какой удивительный путь они прошли, чтобы открыть элементы, навсегда изменившие мир…
Этот цикл фильмов рассказывает о фундаментальном влиянии Периодической таблицы на историю науки. От обнаружения кислорода Лавуазье до классификации элементов Менделеевым и получения плутония Сиборгом – вы своими глазами увидите, как создавалась Периодическая таблица.


Качество видео: HDTVRip 720p

Продолжительность: 3 x ~00:54:00
Формат: MKV
Видео: AVC (x264), 1280x720, 4000 kbps
Аудио #1: русский, двухголосый [профессиональный], AC3 2.0, 192.00 kbps
Аудио #2: английский, [оригинал], AC3 2.0, 192.00 kbps

Автор рипа: skorpionN

Код:

Общее
Уникальный идентификатор : 218528136704230211436202497561540357437 (0xA466FCFBC9C4EAA79F3D3033D1AEED3D)
Полное имя : D:\PBS_The Mystery of Matter Search for the Elements_720p\01_Out of Thin Air.mkv
Формат : Matroska
Версия формата : Version 4 / Version 2
Размер файла : 1,66 Гбайт
Продолжительность : 54 м.
Режим общего битрейта : Переменный
Общий поток : 4382 Кбит/сек
Дата кодирования : UTC 2016-11-08 20:51:10
Программа кодирования : mkvmerge v7.3.0 ('Nouages') 64bit built on Oct 22 2014 18:53:34
Библиотека кодирования : libebml v1.3.0 + libmatroska v1.4.1

Видео
Идентификатор : 1
Формат : AVC
Формат/Информация : Advanced Video Codec
Профиль формата : High@L4.1
Параметр CABAC формата : Да
Параметр ReFrames формата : 3 кадра
Идентификатор кодека : V_MPEG4/ISO/AVC
Продолжительность : 54 м.
Вид битрейта : Переменный
Битрейт : 4000 Кбит/сек
Максимальный битрейт : 8000 Кбит/сек
Ширина : 1280 пикселей
Высота : 720 пикселей
Соотношение сторон : 16:9
Режим частоты кадров : Постоянный
Частота кадров : 29,970 (30000/1001) кадров/сек
Стандарт вещания : NTSC
Цветовое пространство : YUV
Субдискретизация насыщенности : 4:2:0
Битовая глубина : 8 бит
Тип развёртки : Прогрессивная
Бит/(Пиксели*Кадры) : 0.145
Размер потока : 1,51 Гбайт (91%)
Библиотека кодирования : x264 core 114
Настройки программы : cabac=1 / ref=3 / deblock=1:0:0 / analyse=0x3:0x113 / me=hex / subme=7 / psy=1 / psy_rd=1.00:0.00 / mixed_ref=1 / me_range=16 / chroma_me=1 / trellis=1 / 8x8dct=1 / cqm=2 / deadzone=21,11 / fast_pskip=1 / chroma_qp_offset=-4 / threads=6 / sliced_threads=0 / slices=1 / nr=0 / decimate=1 / interlaced=0 / constrained_intra=0 / bframes=3 / b_pyramid=0 / b_adapt=1 / b_bias=0 / direct=1 / weightb=1 / open_gop=0 / weightp=2 / keyint=250 / keyint_min=25 / scenecut=40 / intra_refresh=0 / rc_lookahead=40 / rc=2pass / mbtree=1 / bitrate=4000 / ratetol=1.0 / qcomp=0.60 / qpmin=5 / qpmax=69 / qpstep=4 / cplxblur=20.0 / qblur=0.5 / vbv_maxrate=8000 / vbv_bufsize=7995 / nal_hrd=vbr / ip_ratio=1.40 / aq=1:1.00
Default : Да
Forced : Нет
Цветовой диапазон : Limited
Основные цвета : BT.709
Характеристики трансфера : BT.709
Коэффициенты матрицы : BT.709

Аудио #1
Идентификатор : 2
Формат : AC-3
Формат/Информация : Audio Coding 3
Расширение режима : CM (complete main)
Параметр Endianness формата : Big
Идентификатор кодека : A_AC3
Продолжительность : 54 м.
Вид битрейта : Постоянный
Битрейт : 192 Кбит/сек
Каналы : 2 канала
Расположение каналов : Front: L R
Частота : 48,0 КГц
Частота кадров : 31,250 кадров/сек (1536 spf)
Метод сжатия : С потерями
Размер потока : 74,5 Мбайт (4%)
Язык : Russian
Default : Да
Forced : Нет

Аудио #2
Идентификатор : 3
Формат : AC-3
Формат/Информация : Audio Coding 3
Расширение режима : CM (complete main)
Параметр Endianness формата : Big
Идентификатор кодека : A_AC3
Продолжительность : 54 м.
Вид битрейта : Постоянный
Битрейт : 192 Кбит/сек
Каналы : 2 канала
Расположение каналов : Front: L R
Частота : 48,0 КГц
Частота кадров : 31,250 кадров/сек (1536 spf)
Метод сжатия : С потерями
Размер потока : 74,5 Мбайт (4%)
Язык : English
Default : Нет
Forced : Да
01. Из воздуха / Out of Thin Air (1754-1806)
Ученые из разных стран открывают кислород, переворачивают господствующую теорию химии и вдохновляют поиск новых элементов.

02. Непокорные элементы / Unruly Elements (1859-1902)
Периодическая таблица Менделеева упорядочивает элементы. Но этот порядок оказался под вопросом, когда Мария Кюри открыла радиоактивность.

03. Вглубь атома / Into the Atom (1910-1960)
Гленн Сиборг открывает новый элемент – плутоний, который навсегда меняет мир и высвобождает немыслимую разрушительную силу: атомную бомбу.
picpicpicpicpic
Для увеличения картинки щелкните мышкой по превью

Этот торрент недоступен для скачивания без регистрации, однако доступен по публичной magnet-ссылке (источники с публичных трекеров). Перед использованием ссылки прочтите, пожалуйста Пользовательское соглашение, а также как можно дольше оставайтесь на раздаче! Для того, чтобы скачать сам торрент-файл (который видит больше источников), а также для того, чтобы поблагодарить релизера, вам необходимо зарегистрироваться. Если регистрироваться лень - вы можете также попробовать скачать релиз по нашим партнерским ссылкам ниже.

[underverse.su].t73643.torrent
Трекер: Зарегистрирован   [ 15.11.2016 08:41 ]  

Статус: проверено (by ARI71 at 15.11.2016 08:41)
Поблагодарили: пока никто не поблагодарил...
Тип торрента: публичный - доступные источники с открытых трекеров: 
Размер: 4,96 GB (занимает 1,13 DVDR, для записи нужно 2 болванки DVDR/RW)
 
 


Последний раз редактировалось: ARI71 (15.11.2016 08:41), всего редактировалось 1 раз

ARI71 Пол:Муж

09-Ноя-2016 12:26

Приятного всем просмотра!

Голосуй за трекер!!



ARI71 Пол:Муж

15-Ноя-2016 08:39

    Обновление раздачи завершено!

Яндекс.Метрика powered by Sphinx


В Н И М А Н И Е
Сайт не распространяет и не хранит электронные версии произведений, а лишь бесплатно и без коммерческой выгоды (не требуя взамен платы,
SMS и т.д.) предоставляет доступ к создаваемому пользователями каталогу ссылок на торрент-файлы, которые содержат только списки хеш-сумм.
Убедительная просьба с жалобами обращаться напрямую к пользователю, разместившему торрент файл.

Вверх