Loading...
Error

Кубо. Легенда о самурае / Kubo and the Two Strings (Трэвис Найт) [2016 г., мультфильм, фэнтези, приключения, семейный, WEB-DLRip] Dub (звук с TS)

Статистика раздачи
Размер:  1,45 GB   |    Зарегистрирован:  1 месяц 2 дня   |    Скачан:  11 раз
Сидов:  4  |  0 KB/s  ]   Личеров:  0  |  0 KB/s  ]

* - сиды/пиры с внешних источников

   
 
Автор Сообщение

makkol Пол:Муж

08-Ноя-2016 21:50

Кубо. Легенда о самурае / Kubo and the Two Strings


Год выпуска: 2016
Жанр: мультфильм, фэнтези, приключения, семейный
Производство: США [Laika Entertainment]
Режиссер: Трэвис Найт
Роли озвучивали: Арт Паркинсон, Шарлиз Терон, Рэйф Файнс, Джордж Такей, Кэри-Хироюки Тагава, Бренда Ваккаро, Руни Мара, Мэттью МакКонахи, Мейрик Мерфи, Мина Нодзи
Сюжет фильма:
Кубо — наследник великого рода, но когда возвратились духи прошлого, жаждущие мести, на его защиту отважилась встать лишь странная парочка хранителей. И теперь для Кубо единственный шанс на спасение — найти магические доспехи отца, легендарного самурая.

  • Мировая премьера: 13 августа 2016
  • Российская премьера: 20 октября 2016


Качество видео: WEB-DLRip

Продолжительность: 01:41:38
Формат: AVI
Видео: XviD, 720x304 (2.35:1), 23.976 fps, 1647 kbps
Аудио: русский, дублированный (звук с TS), AC3 2.0, 48 kHz, 384 kbps

Код:

Формат                                   : AVI
Формат/Информация                        : Audio Video Interleave
Размер файла                             : 1,45 Гбайт
Продолжительность                        : 1 ч. 41 м.
Общий поток                              : 2040 Кбит/сек
Библиотека кодирования                   : Boilsoft Joiner build 2411/release

Видео
Идентификатор                            : 0
Формат                                   : MPEG-4 Visual
Профиль формата                          : Advanced Simple@L5
Параметр BVOP формата                    : 2
Параметр QPel формата                    : Нет
Параметр GMC формата                     : Без точки перехода
Параметр матрицы формата                 : Выборочная
Идентификатор кодека                     : XVID
Идентификатор кодека/Подсказка           : XviD
Продолжительность                        : 1 ч. 41 м.
Битрейт                                  : 1647 Кбит/сек
Ширина                                   : 720 пикселей
Высота                                   : 304 пикселя
Соотношение сторон                       : 2,35:1
Частота кадров                           : 23,976 кадра/сек
Цветовое пространство                    : YUV
Субдискретизация насыщенности            : 4:2:0
Битовая глубина                          : 8 бит
Тип развёртки                            : Прогрессивная
Метод сжатия                             : С потерями
Бит/(Пиксели*Кадры)                      : 0.314
Размер потока                            : 1,17 Гбайт (81%)
Библиотека кодирования                   : XviD 1.2.1 (UTC 2008-12-04)

Аудио
Идентификатор                            : 1
Формат                                   : AC-3
Формат/Информация                        : Audio Coding 3
Расширение режима                        : CM (complete main)
Параметр Endianness формата              : Big
Идентификатор кодека                     : 2000
Продолжительность                        : 1 ч. 41 м.
Вид битрейта                             : Постоянный
Битрейт                                  : 384 Кбит/сек
Каналы                                   : 2 канала
Расположение каналов                     : Front: L R
Частота                                  : 48,0 КГц
Битовая глубина                          : 16 бит
Метод сжатия                             : С потерями
Задержка видео                           : 8 мс.
Размер потока                            : 279 Мбайт (19%)
Выравнивание                             : Разделение по промежуткам
Продолжительность промежутка             : 42  мс. (1,00 видеокадр)
Время предзагрузки промежутка            : 500  мс.


picpicpicpicpic
Для увеличения картинки щелкните мышкой по превью

Этот торрент недоступен для скачивания без регистрации, однако доступен по публичной magnet-ссылке (источники с публичных трекеров). Перед использованием ссылки прочтите, пожалуйста Пользовательское соглашение, а также как можно дольше оставайтесь на раздаче! Для того, чтобы скачать сам торрент-файл (который видит больше источников), а также для того, чтобы поблагодарить релизера, вам необходимо зарегистрироваться. Если регистрироваться лень - вы можете также попробовать скачать релиз по нашим партнерским ссылкам ниже.

[underverse.su].t72937.torrent
Трекер: Зарегистрирован   [ 08.11.2016 21:50 ]  

Статус: T временная (by Паукан at 09.11.2016 03:30)
Поблагодарили: пока никто не поблагодарил...
Тип торрента: публичный - доступные источники с открытых трекеров: 
Размер: 1,45 GB (занимает 1/3 DVDR, для записи нужно 1 болванка DVDR/RW)
 
 
Похожие темы
Форум Тема Автор Торрент Отв. Посл. сооб.
T Зарубежные мультфильмы Кубо. Легенда о самурае / Kubo and the Two Strings (Трэвис Найт) [2016 г., мультфильм, фэнтези, приключения, семейный, HDRip] MVO (Синема УС) makkol
176 | 0

0 | 103

14

14.11.2016 10:36

T Новинки мультфильмов [CAMRip, TS, DVDScr, WP, TC] Кубо. Легенда о самурае / Kubo and the Two Strings (Трэвис Найт) [2016 г., мультфильм, фэнтези, приключения, семейный, CAMRip] MVO makkol
12 | 0

0 | 388

17

09.09.2016 22:06

Мультфильмы [HDDVDRip / BDRip / WEB-DL / HDTV 1080/720р] Кубо. Легенда о самурае (Трэвис Найт / Travis Knight) [2016 г., мультфильм, фэнтези, приключения, семейный, BDRip 1080p] MVO (Синема УС) + Original (Eng) + Sub (Rus, Eng) 90ytr90
112 | 14

0 | 410

3

02.12.2016 03:06

Мультфильмы [HDDVDRip / BDRip / WEB-DL / HDTV 1080/720р] Кубо. Легенда о самурае (Трэвис Найт / Travis Knight) [2016 г., мультфильм, фэнтези, приключения, семейный, BDRip 720p] MVO (Синема УС) + Original (Eng) + Sub (Rus, Eng) 90ytr90
413 | 32

0 | 404

3

02.12.2016 03:02

T Мультфильмы [HDDVDRip / BDRip / WEB-DL / HDTV 1080/720р] Кубо. Легенда о самурае / Kubo and the Two Strings (Трэвис Найт) [2016 г., мультфильм, фэнтези, приключения, семейный, BDRip 1080p] MVO (Синема УС) makkol
9 | 1

0 | 89

3

14.11.2016 10:53

T Мультфильмы [HDDVDRip / BDRip / WEB-DL / HDTV 1080/720р] Кубо. Легенда о самурае / Kubo and the Two Strings (Трэвис Найт) [2016 г., мультфильм, фэнтези, приключения, семейный, BDRip 720p] MVO (Синема УС) makkol
3 | 0

0 | 86

4

14.11.2016 10:46

T Мультфильмы [HDDVDRip / BDRip / WEB-DL / HDTV 1080/720р] Кубо. Легенда о самурае (Трэвис Найт / Travis Knight) [2016 г., мультфильм, фэнтези, приключения, семейный, WEB-DLRip 720р] Dub (звук с TS) 90ytr90
63 | 2

0 | 148

6

09.11.2016 05:56

T Мультфильмы [HDDVDRip / BDRip / WEB-DL / HDTV 1080/720р] Кубо. Легенда о самурае (Трэвис Найт / Travis Knight) [2016 г., мультфильм, фэнтези, приключения, семейный, WEB-DLRip 1080р] Dub (звук с TS) 90ytr90
43 | 2

0 | 158

5

09.11.2016 05:59


Яндекс.Метрика powered by Sphinx


В Н И М А Н И Е
Сайт не распространяет и не хранит электронные версии произведений, а лишь бесплатно и без коммерческой выгоды (не требуя взамен платы,
SMS и т.д.) предоставляет доступ к создаваемому пользователями каталогу ссылок на торрент-файлы, которые содержат только списки хеш-сумм.
Убедительная просьба с жалобами обращаться напрямую к пользователю, разместившему торрент файл.

Вверх