Loading...
Error

Владимир Высоцкий. Я приду по ваши души (Лилия Вьюгина) [2008 г., документальный, биография, искусство, TVRip]

Статистика раздачи
Размер:  395 MB   |    Зарегистрирован:  1 месяц 2 дня   |    Скачан:  1 раз

Полного источника не было: 20 дней

Сидов:  0  |  0 KB/s  ]   Личеров:  0  |  0 KB/s  ]

* - сиды/пиры с внешних источников

   
 
Автор Сообщение

ARI71 Пол:Муж

07-Ноя-2016 21:34

Владимир Высоцкий. Я приду по ваши души


Год выпуска: 2008
Жанр: документальный, биография, искусство
Страна: Россия Студия СВС
Режиссер: Лилия Вьюгина
В ролях: Никита Высоцкий, Людмила Абрамова, Марина Влади, Юрий Любимов, Алексей Герман ст., Сева Новгородцев
Сюжет фильма:
Владимира Высоцкого могла стереть в порошок государственная машина. Его могли уничтожить запретами. Болезнь могла погубить в нем потребность и способность к творчеству. Ничего этого не случилось. Он вышел за флажки и создал свое духовное пространство, естественное и свободное. И подарил его нам. Он был победителем во всем. Не сумел победить только себя. Потому что творчество — это и болезнь, и дар одновременно. Но дар часто такой мучительный, что не все в состоянии этот дар принимать и нести всю жизнь. Система к его судьбе имеет очень малое отношение. То, что с ним случилось, есть выход такой саморазрушительной черты российского характера, при которой его широта просто не вмещается в рамки жизни. Высоцкого поглотило собственное искусство. Он не мог защитить себя от того, что он делал… В документальном фильме Лилии Вьюгиной можно увидеть уникальные хроникальные кадры, фотографии, аудиозаписи.
Качество видео: TVRip

Продолжительность: 00:51:59
Формат: AVI
Видео: XviD, 640x416, 932 kbps
Аудио: русский, (оригинал), MP3 2.0, 128.00 kbps

Код:

Общее
Полное имя : D:\Vladimir.Vysockiy.Ya.Pridu.Po.Vashi.Dushi.2008.TVRip.XviD-CGI.avi
Формат : AVI
Формат/Информация : Audio Video Interleave
Профиль формата : OpenDML
Настройки формата : rec
Размер файла : 395 Мбайт
Продолжительность : 51 м.
Общий поток : 1063 Кбит/сек
Программа кодирования : AVI-Mux GUI 1.17.7, Aug 8 2006 20:59:17

Видео
Идентификатор : 0
Формат : MPEG-4 Visual
Профиль формата : Advanced Simple@L5
Параметр BVOP формата : 1
Параметр QPel формата : Нет
Параметр GMC формата : Без точки перехода
Параметр матрицы формата : Default (H.263)
Идентификатор кодека : XVID
Идентификатор кодека/Подсказка : XviD
Продолжительность : 51 м.
Битрейт : 932 Кбит/сек
Ширина : 640 пикселей
Высота : 416 пикселей
Соотношение сторон : 3:2
Частота кадров : 25,000 кадров/сек
Цветовое пространство : YUV
Субдискретизация насыщенности : 4:2:0
Битовая глубина : 8 бит
Тип развёртки : Прогрессивная
Метод сжатия : С потерями
Бит/(Пиксели*Кадры) : 0.140
Размер потока : 346 Мбайт (88%)
Библиотека кодирования : XviD 1.2.0.dev47 (UTC 2006-11-01)

Аудио
Идентификатор : 1
Формат : MPEG Audio
Версия формата : Version 1
Профиль формата : Layer 3
Режим : Joint stereo
Расширение режима : MS Stereo
Идентификатор кодека : 55
Идентификатор кодека/Подсказка : MP3
Продолжительность : 51 м.
Вид битрейта : Постоянный
Битрейт : 128 Кбит/сек
Каналы : 2 канала
Частота : 48,0 КГц
Метод сжатия : С потерями
Размер потока : 47,6 Мбайт (12%)
Выравнивание : Соединение по промежуткам
Продолжительность промежутка : 795 мс. (19,88 видеокадров)
Время предзагрузки промежутка : 216 мс.
Заголовок : Pervyj Vsemirnaya Set' (ua)-20080726-205008 T01 DELAY 0ms
Библиотека кодирования : LAME3.98 
Настройки программы : -m j -V 4 -q 2 -lowpass 17 -b 128
picpicpicpicpic
Для увеличения картинки щелкните мышкой по превью

Этот торрент недоступен для скачивания без регистрации, однако доступен по публичной magnet-ссылке (источники с публичных трекеров). Перед использованием ссылки прочтите, пожалуйста Пользовательское соглашение, а также как можно дольше оставайтесь на раздаче! Для того, чтобы скачать сам торрент-файл (который видит больше источников), а также для того, чтобы поблагодарить релизера, вам необходимо зарегистрироваться. Если регистрироваться лень - вы можете также попробовать скачать релиз по нашим партнерским ссылкам ниже.

[underverse.su].t72773.torrent
Трекер: Зарегистрирован   [ 07.11.2016 21:34 ]  

Статус: проверено (by ARI71 at 07.11.2016 21:36)
Поблагодарили: 1 человек
Тип торрента: публичный - доступные источники с открытых трекеров: 
Размер: 395 MB (занимает 0,09 DVDR, для записи нужно 1 болванка DVDR/RW)
 
 
Похожие темы
Форум Тема Автор Торрент Отв. Посл. сооб.
Личности Владимир Высоцкий. "Так оставьте ненужные споры..." / Фильм о фильме [2011 г., Документальный, SatRip] МУХА~
0 | 0

1 | 1449

7

26.04.2013 20:42

Личности Владимир Высоцкий - Нет, ребята, всё не так… [2013 г., Авторская песня, DVDRip] 90ytr90
1 | 0

0 | 1341

28

10.02.2013 11:42

Личности Владимир Высоцкий: Театральный этюд на Таганские темы (1-3 серии из 3) / (Александр Ковановский, Игорь Рахманов) [2011 г., документальный, искусство, биография, DVDRip] ARI71
2 | 0

0 | 432

3

10.09.2016 07:56

Личности Владимир Высоцкий - Про друга закадычного... (памяти Ивана Дыховичного) [2010 г., документальный, DVDRip] Original ARI71
0 | 0

1 | 641

5

12.08.2015 00:29

Другая компьютерная литература Владимир Волков - Понятный самоучитель Excel [2010 г., Компьютерная литература, PDF] RUS kantona
0 | 0

2 | 1326

36

16.08.2012 05:16

Другие аудиокниги Владимир Войнович - Москва 2042 [2003, Антиутопия, сатира, юмор, МР3, 32kbps] Чертёнок
0 | 0

1 | 1097

15

27.08.2015 21:24

Другие аудиокниги Владимир Войнович - Хочу быть честным (1989) [2009 г., аудиокнига, русская литература, современная литература, MP3, 96 kbps] RUS Паукан
3 | 0

0 | 823

6

07.07.2014 09:41

Психология. философия, религия Владимир Винокур - Уловки в споре (2009) [MP3, 192 Kbps] Bratok
0 | 0

2 | 2796

29

13.08.2011 10:54

Ужасы, мистика Владимир Высоцкий, Леонид Мончинский - Черная свеча (2011) [MP3, 128kbps ] aterfin
1 | 0

0 | 945

21

06.07.2011 15:39

Ужасы, мистика Владимир Войнович - Жизнь и необычайные приключения солдата Ивана Чонкина. Книга 1. Лицо неприкосновенное (1969) [2012 г., аудиокнига, русская литература, современная литература, MP3, 96 kbps] RUS Паукан
4 | 0

0 | 1361

16

07.07.2014 09:22


Яндекс.Метрика powered by Sphinx


В Н И М А Н И Е
Сайт не распространяет и не хранит электронные версии произведений, а лишь бесплатно и без коммерческой выгоды (не требуя взамен платы,
SMS и т.д.) предоставляет доступ к создаваемому пользователями каталогу ссылок на торрент-файлы, которые содержат только списки хеш-сумм.
Убедительная просьба с жалобами обращаться напрямую к пользователю, разместившему торрент файл.

Вверх