Loading...
Error

Все что вы хотели о нем знать, но боялись спросить. Жир / The Truth About Fat (Мэттью Эйнсуорт) [2015 г., документальный, научно-познавательный, HDTVRip] DVO

Статистика раздачи
Размер:  695 MB   |    Зарегистрирован:  1 месяц 3 дня   |    Скачан:  1 раз

Полного источника не было: 1 месяц 1 день

Сидов:  0  |  0 KB/s  ]   Личеров:  0  |  0 KB/s  ]

* - сиды/пиры с внешних источников

   
 
Автор Сообщение

ARI71 Пол:Муж

07-Ноя-2016 19:46

Все что вы хотели о нем знать, но боялись спросить. Жир / The Truth About Fat


Год выпуска: 2015
Жанр: документальный, научно-познавательный
Страна: Великобритания BBC Scotland Science Production
Режиссер: Мэттью Эйнсуорт
Ведущая: Салейха Ахсан
Сюжет фильма:
Репутацию главного врага человечества завоевал жир. Пора узнать о нём всю правду. Врачи уже несколько десятилетий рекомендуют избегать насыщенного жира. Последние годы модные журналы пишут, что люди неправильно относятся к жиру. Стало модным добавлять сливочное масло даже в кофе. Крайне противоречивая информация смущает и приводит в замешательство. Само слово жир сбивает с толку. Съеденный жир быстро попадает в кровь. Она поглощает 95% жира. Тело человека устроено так, чтобы выжимать жир с любой еды. Жир внутри организма окружает все органы. Он намного опаснее подкожного. Это может привести к диабету и сердечной недостаточности. Но жизнь без жира влияет на тело и разум неожиданным образом. Эффект бывает странным, а иногда и неприятным. Исключить жир из рациона почти невозможно. Он есть во всех продуктах, даже в диетических. Идея полностью обезжиренной диеты почти неосуществима. Вся еда содержит хотя бы минимальное количество жира. Он есть даже в овощах. Организм никогда не согласится с безжировой диетой. Он не в состоянии привыкнуть к отсутствию жиров. Обычно люди едят столько жиров, сколько хотят. Это приводит к его переизбытку. Но сжечь его легко...
Качество видео: HDTVRip

Продолжительность: 00:51:07
Формат: AVI
Видео: XviD, 720x400, 1700 kbps
Аудио: русский, двухголосый закадровый [профессиональный], AC3 2.0, 192.00 kbps

Автор рипа: DarknesS93

Код:

Общее
Полное имя : D:\BBC_The Truth About_Fat.HDTVRip.by RockeT [KaztorrentS].avi
Формат : AVI
Формат/Информация : Audio Video Interleave
Размер файла : 695 Мбайт
Продолжительность : 51 м.
Общий поток : 1902 Кбит/сек
Программа кодирования : VirtualDubMod 1.5.10.3 | www.virtualdub-fr.org || (build 2550/release)
Библиотека кодирования : VirtualDubMod build 2550/release

Видео
Идентификатор : 0
Формат : MPEG-4 Visual
Профиль формата : Advanced Simple@L5
Параметр BVOP формата : 1
Параметр QPel формата : Нет
Параметр GMC формата : Без точки перехода
Параметр матрицы формата : Default (MPEG)
Идентификатор кодека : XVID
Идентификатор кодека/Подсказка : XviD
Продолжительность : 51 м.
Битрейт : 1700 Кбит/сек
Ширина : 720 пикселей
Высота : 400 пикселей
Соотношение сторон : 16:9
Частота кадров : 25,000 кадров/сек
Цветовое пространство : YUV
Субдискретизация насыщенности : 4:2:0
Битовая глубина : 8 бит
Тип развёртки : Прогрессивная
Метод сжатия : С потерями
Бит/(Пиксели*Кадры) : 0.236
Размер потока : 622 Мбайт (89%)
Библиотека кодирования : XviD 1.2.1 (UTC 2008-12-04)

Аудио
Идентификатор : 1
Формат : AC-3
Формат/Информация : Audio Coding 3
Расширение режима : CM (complete main)
Параметр Endianness формата : Big
Идентификатор кодека : 2000
Продолжительность : 51 м.
Вид битрейта : Постоянный
Битрейт : 192 Кбит/сек
Каналы : 2 канала
Расположение каналов : Front: L R
Частота : 48,0 КГц
Частота кадров : 31,250 кадров/сек (1536 spf)
Метод сжатия : С потерями
Размер потока : 70,2 Мбайт (10%)
Выравнивание : Разделение по промежуткам
Продолжительность промежутка : 40 мс. (1,00 видеокадр)
Время предзагрузки промежутка : 500 мс.
picpicpicpicpic
Для увеличения картинки щелкните мышкой по превью

Этот торрент недоступен для скачивания без регистрации, однако доступен по публичной magnet-ссылке (источники с публичных трекеров). Перед использованием ссылки прочтите, пожалуйста Пользовательское соглашение, а также как можно дольше оставайтесь на раздаче! Для того, чтобы скачать сам торрент-файл (который видит больше источников), а также для того, чтобы поблагодарить релизера, вам необходимо зарегистрироваться. Если регистрироваться лень - вы можете также попробовать скачать релиз по нашим партнерским ссылкам ниже.

[underverse.su].t72755.torrent
Трекер: Зарегистрирован   [ 07.11.2016 19:46 ]  

Статус: проверено (by ARI71 at 07.11.2016 19:50)
Поблагодарили: пока никто не поблагодарил...
Тип торрента: публичный - доступные источники с открытых трекеров: 
Размер: 695 MB (занимает 0,16 DVDR, для записи нужно 1 болванка DVDR/RW)
 
 
Похожие темы
Форум Тема Автор Торрент Отв. Посл. сооб.
BBC Все что вы хотели о нем знать, но боялись спросить. Жир / The Truth About Fat (Мэттью Эйнсуорт) [2015 г., документальный, научно-познавательный, HDTVRip 720p] DVO + Original (Eng) ARI71
6 | 0

1 | 181

0

06.11.2016 08:57

ARI71 Пол:Муж

07-Ноя-2016 19:49

Приятного всем просмотра!

Голосуй за трекер!!




Яндекс.Метрика powered by Sphinx


В Н И М А Н И Е
Сайт не распространяет и не хранит электронные версии произведений, а лишь бесплатно и без коммерческой выгоды (не требуя взамен платы,
SMS и т.д.) предоставляет доступ к создаваемому пользователями каталогу ссылок на торрент-файлы, которые содержат только списки хеш-сумм.
Убедительная просьба с жалобами обращаться напрямую к пользователю, разместившему торрент файл.

Вверх