Loading...
Error

Зеленая планета / The Green Planet (Das grune Wunder - Unser Wald) / (Жан Хафт) [2012 г., документальный, научно-популярный, флора, фауна, HDTVRip 720p] VO (СВ Дубль)

Статистика раздачи
Размер:  3,26 GB   |    Зарегистрирован:  1 месяц 2 дня   |    Скачан:  1 раз

Полного источника не было: 1 месяц

Сидов:  0  |  0 KB/s  ]   Личеров:  0  |  0 KB/s  ]

* - сиды/пиры с внешних источников

   
 
Автор Сообщение

ARI71 Пол:Муж

07-Ноя-2016 15:13

Зеленая планета / The Green Planet (Das grüne Wunder - Unser Wald)


Год выпуска: 2012
Жанр: документальный, научно-популярный, флора, фауна
Страна: Германия Natural History Germany, Nautilusfilm, NDR Naturfilm, Polyband GmbH, Studio Hamburg Doclights Produktion
Режиссер: Жан Хафт
Сюжет фильма:
Волшебный и загадочный мир леса, какие тайны скрыты в этом удивительном месте? Леса занимают 30 процентов поверхности Земли, но мы до сих пор мало что о них знаем. «Зеленая планета» позволит нам приблизиться к этому загадочному и волшебному миру. На протяжении шести лет съемочная группа создавала фильм о жизни его обитателей. Благодаря современным технологиям съемки зрители познакомятся со странными и удивительными обитателями леса. Увидят, как распускаются еловые шишки, а подснежники пробиваются сквозь снег в начале весны; встретятся с новорожденными лисятами, кабанами и оленями, мирно сосуществующими на огромных территориях, надежно скрытых под сенью ветвей вековых деревьев. Фильм получил специальный приз жюри на Wildlife Vaasa Festival, а также приз за лучший монтаж британской премии Wildscreen.


Качество видео: HDTVRip 720p

Продолжительность: 01:29:50
Формат: MKV
Видео: AVC (x264), 1280x720, 5000 kbps
Аудио: русский, одноголосый [профессиональный, СВ Дубль], AC3 2.0, 192.00 kbps

Автор рипа: skorpionN

Код:

Общее
Уникальный идентификатор : 237915800767886014786456342609607695142 (0xB2FCEA9F5CB80BB7A8394D15F1529B26)
Полное имя : D:\The Green Planet_720p.mkv
Формат : Matroska
Версия формата : Version 4 / Version 2
Размер файла : 3,26 Гбайт
Продолжительность : 1 ч. 29 м.
Режим общего битрейта : Переменный
Общий поток : 5188 Кбит/сек
Дата кодирования : UTC 2016-11-07 08:43:09
Программа кодирования : mkvmerge v7.3.0 ('Nouages') 64bit built on Oct 22 2014 18:53:34
Библиотека кодирования : libebml v1.3.0 + libmatroska v1.4.1

Видео
Идентификатор : 1
Формат : AVC
Формат/Информация : Advanced Video Codec
Профиль формата : High@L4.1
Параметр CABAC формата : Да
Параметр ReFrames формата : 3 кадра
Идентификатор кодека : V_MPEG4/ISO/AVC
Продолжительность : 1 ч. 29 м.
Вид битрейта : Переменный
Битрейт : 5000 Кбит/сек
Максимальный битрейт : 8000 Кбит/сек
Ширина : 1280 пикселей
Высота : 720 пикселей
Соотношение сторон : 16:9
Режим частоты кадров : Постоянный
Частота кадров : 25,000 кадров/сек
Стандарт вещания : NTSC
Цветовое пространство : YUV
Субдискретизация насыщенности : 4:2:0
Битовая глубина : 8 бит
Тип развёртки : Прогрессивная
Бит/(Пиксели*Кадры) : 0.217
Размер потока : 3,13 Гбайт (96%)
Библиотека кодирования : x264 core 114
Настройки программы : cabac=1 / ref=3 / deblock=1:0:0 / analyse=0x3:0x113 / me=hex / subme=7 / psy=1 / psy_rd=1.00:0.00 / mixed_ref=1 / me_range=16 / chroma_me=1 / trellis=1 / 8x8dct=1 / cqm=2 / deadzone=21,11 / fast_pskip=1 / chroma_qp_offset=-4 / threads=6 / sliced_threads=0 / slices=1 / nr=0 / decimate=1 / interlaced=0 / constrained_intra=0 / bframes=3 / b_pyramid=0 / b_adapt=1 / b_bias=0 / direct=1 / weightb=1 / open_gop=0 / weightp=2 / keyint=250 / keyint_min=25 / scenecut=40 / intra_refresh=0 / rc_lookahead=40 / rc=2pass / mbtree=1 / bitrate=5000 / ratetol=1.0 / qcomp=0.60 / qpmin=5 / qpmax=69 / qpstep=4 / cplxblur=20.0 / qblur=0.5 / vbv_maxrate=8000 / vbv_bufsize=7995 / nal_hrd=vbr / ip_ratio=1.40 / aq=1:1.00
Default : Да
Forced : Нет
Цветовой диапазон : Limited
Основные цвета : BT.709
Характеристики трансфера : BT.709
Коэффициенты матрицы : BT.709

Аудио
Идентификатор : 2
Формат : AC-3
Формат/Информация : Audio Coding 3
Расширение режима : CM (complete main)
Параметр Endianness формата : Big
Идентификатор кодека : A_AC3
Продолжительность : 1 ч. 29 м.
Вид битрейта : Постоянный
Битрейт : 192 Кбит/сек
Каналы : 2 канала
Расположение каналов : Front: L R
Частота : 48,0 КГц
Частота кадров : 31,250 кадров/сек (1536 spf)
Метод сжатия : С потерями
Размер потока : 123 Мбайт (4%)
Default : Да
Forced : Нет
picpicpicpicpic
Для увеличения картинки щелкните мышкой по превью

Этот торрент недоступен для скачивания без регистрации, однако доступен по публичной magnet-ссылке (источники с публичных трекеров). Перед использованием ссылки прочтите, пожалуйста Пользовательское соглашение, а также как можно дольше оставайтесь на раздаче! Для того, чтобы скачать сам торрент-файл (который видит больше источников), а также для того, чтобы поблагодарить релизера, вам необходимо зарегистрироваться. Если регистрироваться лень - вы можете также попробовать скачать релиз по нашим партнерским ссылкам ниже.

[underverse.su].t72693.torrent
Трекер: Зарегистрирован   [ 07.11.2016 15:13 ]  

Статус: проверено (by ARI71 at 07.11.2016 15:16)
Поблагодарили: пока никто не поблагодарил...
Тип торрента: публичный - доступные источники с открытых трекеров: 
Размер: 3,26 GB (занимает 0,74 DVDR, для записи нужно 1 болванка DVDR/RW)
 
 

ARI71 Пол:Муж

07-Ноя-2016 15:23

Приятного всем просмотра!

Голосуй за трекер!!




Яндекс.Метрика powered by Sphinx


В Н И М А Н И Е
Сайт не распространяет и не хранит электронные версии произведений, а лишь бесплатно и без коммерческой выгоды (не требуя взамен платы,
SMS и т.д.) предоставляет доступ к создаваемому пользователями каталогу ссылок на торрент-файлы, которые содержат только списки хеш-сумм.
Убедительная просьба с жалобами обращаться напрямую к пользователю, разместившему торрент файл.

Вверх