Loading...
Error

Гении и Злодеи. Чарли Чаплин (Ольга Арлаускас) [2009 г., документальный, биография, история, кинематограф, SatRip]

Статистика раздачи
Размер:  264 MB   |    Зарегистрирован:  1 месяц 2 дня   |    Скачан:  0 раз

Полного источника не было: 1 месяц 1 день

Сидов:  0  |  0 KB/s  ]   Личеров:  0  |  0 KB/s  ]

* - сиды/пиры с внешних источников

   
 
Автор Сообщение

ARI71 Пол:Муж

07-Ноя-2016 10:36

Гении и Злодеи. Чарли Чаплин


Год выпуска: 2009
Жанр: документальный, биография, история, кинематограф
Страна: Россия ООО "Цивилизация НЕО"
Режиссер: Ольга Арлаускас
Ведущий: Лев Николаев
Сюжет фильма:
Нам только кажется что мы всё знаем о Чаплине, большинство из нас считает, что он вот такой самородок. Он на равных общался с лучшими умами эпохи, но никто не мог заподозрить, что этот остроумный, изящный в манерах эрудит, рос в нищете и не закончил даже начальной школы. Жизнь Чарли Чаплина начиналась радужно. Семья жила в красивом доме, в центре Лондона. Мама была артисткой варьете – она прекрасно пела и танцевала. Чарли с братом Сиднеем гордились ею, и жизнь казалась праздником. Однажды Чарли стоял за кулисами и слушал мамино выступление. Вдруг на самой высокой ноте она сорвала голос и перешла на хрип. Как ни старалась она запеть снова, ей это не удавалось. Зрители стали свистеть и прогнали ее со сцены. Директор театра, зная, что Чарли музыкально одарен, вывел его к зрителям. Мальчик не растерялся и запел песенку. Каково было его удивление, когда зал не только притих, но и зааплодировал. На сцену полетели монеты. Это был успех!

Сэр Ча́рльз Спе́нсер (Ча́рли) Ча́плин (англ. Charles Spencer «Charlie» Chaplin; 16 апреля 1889 — 25 декабря 1977) — американский и английский киноактёр, сценарист, композитор, кинорежиссёр, продюсер и монтажёр, универсальный мастер кинематографа, создатель одного из самых знаменитых образов мирового кино — образа бродяжки Чарли.
Качество видео: SatRip

Продолжительность: 00:25:31
Формат: AVI
Видео: XviD, 720x576, 1310 kbps
Аудио: русский, (оригинал), MP3 2.0, 128.00 kbps

Код:

Общее
Полное имя : D:\Гении и Злодеи. Чарли Чаплин.avi
Формат : AVI
Формат/Информация : Audio Video Interleave
Размер файла : 264 Мбайт
Продолжительность : 25 м.
Общий поток : 1447 Кбит/сек
Библиотека кодирования : VirtualDub-MPEG2 build 24600/release

Видео
Идентификатор : 0
Формат : MPEG-4 Visual
Профиль формата : Advanced Simple@L5
Параметр BVOP формата : 2
Параметр QPel формата : Нет
Параметр GMC формата : Без точки перехода
Параметр матрицы формата : Default (H.263)
Режим смешивания : Сжатый битовый поток
Идентификатор кодека : XVID
Идентификатор кодека/Подсказка : XviD
Продолжительность : 25 м.
Битрейт : 1310 Кбит/сек
Ширина : 720 пикселей
Высота : 576 пикселей
Соотношение сторон : 5:4
Частота кадров : 25,000 кадров/сек
Стандарт вещания : PAL
Цветовое пространство : YUV
Субдискретизация насыщенности : 4:2:0
Битовая глубина : 8 бит
Тип развёртки : Прогрессивная
Метод сжатия : С потерями
Бит/(Пиксели*Кадры) : 0.126
Размер потока : 239 Мбайт (90%)
Библиотека кодирования : XviD 1.1.2 (UTC 2006-11-01)

Аудио
Идентификатор : 1
Формат : MPEG Audio
Версия формата : Version 1
Профиль формата : Layer 3
Режим : Joint stereo
Расширение режима : MS Stereo
Идентификатор кодека : 55
Идентификатор кодека/Подсказка : MP3
Продолжительность : 25 м.
Вид битрейта : Постоянный
Битрейт : 128 Кбит/сек
Каналы : 2 канала
Частота : 48,0 КГц
Метод сжатия : С потерями
Размер потока : 23,4 Мбайт (9%)
Выравнивание : Разделение по промежуткам
Продолжительность промежутка : 40 мс. (1,00 видеокадр)
Время предзагрузки промежутка : 500 мс.
picpicpicpic
Для увеличения картинки щелкните мышкой по превью

Этот торрент недоступен для скачивания без регистрации, однако доступен по публичной magnet-ссылке (источники с публичных трекеров). Перед использованием ссылки прочтите, пожалуйста Пользовательское соглашение, а также как можно дольше оставайтесь на раздаче! Для того, чтобы скачать сам торрент-файл (который видит больше источников), а также для того, чтобы поблагодарить релизера, вам необходимо зарегистрироваться. Если регистрироваться лень - вы можете также попробовать скачать релиз по нашим партнерским ссылкам ниже.

[underverse.su].t72583.torrent
Трекер: Зарегистрирован   [ 07.11.2016 10:36 ]  

Статус: проверено (by ARI71 at 07.11.2016 10:37)
Поблагодарили: пока никто не поблагодарил...
Тип торрента: публичный - доступные источники с открытых трекеров: 
Размер: 264 MB (занимает 0,06 DVDR, для записи нужно 1 болванка DVDR/RW)
 
 
Похожие темы
Форум Тема Автор Торрент Отв. Посл. сооб.
Личности Гении и злодеи. Сергей Образцов. Человек который играл в куклы (Юлия Маврина) [2016 г., документальный, биография, театр, искусство, SatRip] ARI71
2 | 0

1 | 208

1

02.11.2016 17:13

Личности Гении и злодеи. Трофим Лысенко. Триумф и крах Всесоюзного садовника [2016 г., документальный, биография, наука, история, SatRip] ARI71
1 | 0

0 | 450

1

20.04.2016 14:29

Личности Гении и злодеи. Николай Рерих. Зов Шамбалы [2016 г., документальный, биография, искусство, история, SatRip] ARI71
1 | 1

0 | 661

5

26.04.2016 17:56

Личности Гении и злодеи уходящей эпохи. Эрнст Неизвестный (Юлия Маврина) [2010 г., документальный, биография, искусство, TVRip] ARI71
0 | 0

0 | 451

0

16.08.2016 19:57

Исторический роман Гении и злодеи [11 книг] [2010-2012 г., проза, историческая книга, FB2] RUS Паукан
1 | 0

0 | 670

18

04.06.2015 15:31


Яндекс.Метрика powered by Sphinx


В Н И М А Н И Е
Сайт не распространяет и не хранит электронные версии произведений, а лишь бесплатно и без коммерческой выгоды (не требуя взамен платы,
SMS и т.д.) предоставляет доступ к создаваемому пользователями каталогу ссылок на торрент-файлы, которые содержат только списки хеш-сумм.
Убедительная просьба с жалобами обращаться напрямую к пользователю, разместившему торрент файл.

Вверх