Loading...
Error

(Vocal Jazz, Pop) Michael Buble (Buble) - Nobody But Me (Deluxe Edition) (2016) [FLAC (Image+.Cue), Lossless]

Статистика раздачи
Размер:  298 MB   |    Зарегистрирован:  1 год 10 месяцев   |    Скачан:  9 раз

Полного источника не было: 15 часов

Сидов:  0  |  0 KB/s  ]   Личеров:  3  |  0 KB/s  ]

* - сиды/пиры с внешних источников

   
 
Автор Сообщение

Бишеп Пол:Муж

07-Ноя-2016 06:09

Michael Buble (Buble) - Nobody But Me (Deluxe Edition)

Жанр: Vocal Jazz, Pop
Год выпуска: 2016
Источник: CD
Производитель диска: Reprise Records
Аудиокодек: FLAC
Тип рипа: Image+.CUE
Битрейт аудио: lossless
Продолжительность: 00:44:59


Треклист:
01. I Believe In You
02. My Kind Of Girl
03. Nobody But Me
04. On An Evening In Roma (Sotter Celo De Roma)
05. Today Is Yesterday's Tomorrow
06. The Very Thought Of You
07. I Wanna Be Around
08. Someday (feat. Meghan Trainor)
09. My Baby Just Cares For Me
10. This Love Of Mine
11. Nobody But Me (Alternate w/Trumpet Version)
12. Take You Away
13. God Only Knows

Код:

Exact Audio Copy V1.1 from 23. June 2015

EAC extraction logfile from 21. October 2016, 1:25

Michael Buble / Nobody But Me (Deluxe Edition)

Used drive  : Pioneer BDR-209DBK   Adapter: 0  ID: 0

Read mode               : Secure
Utilize accurate stream : Yes
Defeat audio cache      : Yes
Make use of C2 pointers : No

Read offset correction                      : 6
Overread into Lead-In and Lead-Out          : No
Fill up missing offset samples with silence : Yes
Delete leading and trailing silent blocks   : No
Null samples used in CRC calculations       : Yes
Used interface                              : Installed external ASPI interface

Used output format : Internal WAV Routines
Sample format      : 44.100 Hz; 16 Bit; Stereo

TOC of the extracted CD

     Track |   Start  |  Length  | Start sector | End sector
    ---------------------------------------------------------
        1  |  0:00.00 |  3:21.61 |         0    |    15135   
        2  |  3:21.61 |  4:06.33 |     15136    |    33618   
        3  |  7:28.19 |  3:01.31 |     33619    |    47224   
        4  | 10:29.50 |  2:42.39 |     47225    |    59413   
        5  | 13:12.14 |  3:24.40 |     59414    |    74753   
        6  | 16:36.54 |  3:31.46 |     74754    |    90624   
        7  | 20:08.25 |  3:42.09 |     90625    |   107283   
        8  | 23:50.34 |  3:23.34 |    107284    |   122542   
        9  | 27:13.68 |  3:15.51 |    122543    |   137218   
       10  | 30:29.44 |  4:19.72 |    137219    |   156715   
       11  | 34:49.41 |  3:01.29 |    156716    |   170319   
       12  | 37:50.70 |  2:53.16 |    170320    |   183310   
       13  | 40:44.11 |  4:15.30 |    183311    |   202465   

Range status and errors

Selected range

     Filename H:\Spotnet\Michael Buble - Nobody But Me (EAC)\Michael Buble - Nobody But Me (Deluxe Edition).wav

     Peak level 99.8 %
     Extraction speed 6.7 X
     Range quality 100.0 %
     Test CRC 7E1A49D6
     Copy CRC 7E1A49D6
     Copy OK

No errors occurred

 
AccurateRip summary
 
Track  1  not present in database
Track  2  not present in database
Track  3  not present in database
Track  4  not present in database
Track  5  not present in database
Track  6  not present in database
Track  7  not present in database
Track  8  not present in database
Track  9  not present in database
Track 10  not present in database
Track 11  not present in database
Track 12  not present in database
Track 13  not present in database
 
None of the tracks are present in the AccurateRip database

End of status report

Код:

REM GENRE Pop
REM DATE 2016
REM DISCID 9B0A8B0D
REM COMMENT "ExactAudioCopy v1.1"
PERFORMER "Michael Buble"
TITLE "Nobody But Me (Deluxe Edition)"
FILE "Michael Buble - Nobody But Me (Deluxe Edition).flac" WAVE
  TRACK 01 AUDIO
    TITLE "I Believe In You"
    PERFORMER "Michael Buble"
    INDEX 01 00:00:00
  TRACK 02 AUDIO
    TITLE "My Kind Of Girl"
    PERFORMER "Michael Buble"
    INDEX 01 03:21:61
  TRACK 03 AUDIO
    TITLE "Nobody But Me"
    PERFORMER "Michael Buble"
    INDEX 01 07:28:19
  TRACK 04 AUDIO
    TITLE "On An Evening In Roma (Sotter Celo De Roma)"
    PERFORMER "Michael Buble"
    INDEX 01 10:29:50
  TRACK 05 AUDIO
    TITLE "Today Is Yesterday's Tomorrow"
    PERFORMER "Michael Buble"
    INDEX 01 13:12:14
  TRACK 06 AUDIO
    TITLE "The Very Thought Of You"
    PERFORMER "Michael Buble"
    INDEX 01 16:36:54
  TRACK 07 AUDIO
    TITLE "I Wanna Be Around"
    PERFORMER "Michael Buble"
    INDEX 01 20:08:25
  TRACK 08 AUDIO
    TITLE "Someday (feat. Meghan Trainor)"
    PERFORMER "Michael Buble"
    INDEX 01 23:50:34
  TRACK 09 AUDIO
    TITLE "My Baby Just Cares For Me"
    PERFORMER "Michael Buble"
    INDEX 01 27:13:68
  TRACK 10 AUDIO
    TITLE "This Love Of Mine"
    PERFORMER "Michael Buble"
    INDEX 01 30:29:44
  TRACK 11 AUDIO
    TITLE "Nobody But Me (Alternate w/Trumpet Version)"
    PERFORMER "Michael Buble"
    INDEX 01 34:49:41
  TRACK 12 AUDIO
    TITLE "Take You Away"
    PERFORMER "Michael Buble"
    INDEX 01 37:50:70
  TRACK 13 AUDIO
    TITLE "God Only Knows"
    PERFORMER "Michael Buble"
    INDEX 01 40:44:11

Этот торрент недоступен для скачивания без регистрации, однако доступен по публичной magnet-ссылке (источники с публичных трекеров). Перед использованием ссылки прочтите, пожалуйста Пользовательское соглашение, а также как можно дольше оставайтесь на раздаче! Для того, чтобы скачать сам торрент-файл (который видит больше источников), а также для того, чтобы поблагодарить релизера, вам необходимо зарегистрироваться. Если регистрироваться лень - вы можете также попробовать скачать релиз по нашим партнерским ссылкам ниже. Кроме того, зарегистрированным пользователям не показывается всплывающая реклама при скачивании.

[underverse.su].t72538.torrent
Трекер: Зарегистрирован   [ 07.11.2016 06:09 ]  

Статус: проверено (by Бишеп at 07.11.2016 06:09)
Поблагодарили: пока никто не поблагодарил...
Тип торрента: публичный - доступные источники с открытых трекеров: 
Размер: 298 MB (занимает 0,07 DVDR, для записи нужно 1 болванка DVDR/RW)
 
 
Похожие темы
Форум Тема Автор Торрент Отв. Посл. сооб.
Jazz (Vocal Jazz, Swing) Nat King Cole - The World of Nat King Cole (2005) [MP3, VBR ~224 kbps] ZondeR
0 | 0

0 | 2633

13

28.04.2012 12:45

Jazz (Vocal Jazz) Diana Krall - Дискография (1993-2017) [MP3, 320 kbps CBR] Darkferse
5 | 1

0 | 1677

9

08.05.2017 18:45

Jazz (Vocal Jazz, Swing) Dean Martin - Swingin With Dino (2002) [MP3, 320 kbps] ZondeR
0 | 0

0 | 1922

7

20.08.2012 19:04

Jazz (Vocal Jazz) Ulita Knaus - Love In This Time (2017) [MP3, 320 kbps CBR] Darkferse
2 | 0

0 | 574

4

05.05.2017 07:52

Jazz (Vocal Jazz) Cecile Messyasz - Theo's Lullaby (2017) [MP3, 320 kbps CBR] Darkferse
2 | 0

0 | 566

4

05.05.2017 07:37

Jazz (Vocal Jazz, Soul) Eleni Naomi - Still I Wait (2017) [MP3, 320 kbps CBR] Darkferse
1 | 0

0 | 613

4

22.05.2017 16:35

Jazz (Vocal Jazz, Pop) Stephanie Hundertmark - Enjoy The View (2017) [MP3, 320 kbps CBR] Darkferse
3 | 0

0 | 614

3

22.05.2017 16:23

Jazz (Vocal Jazz, Pop) Robin Grant & The Standard - Good Girl (2017) [MP3, 320 kbps CBR] Darkferse
2 | 0

0 | 648

5

29.08.2017 09:21

Jazz (Vocal Jazz) Beas - Stolen Diamonds (2017) [MP3, 320 kbps CBR] Darkferse
2 | 0

0 | 661

5

31.05.2017 19:56

Jazz (Vocal Jazz) Stac - Perpetual (2017) [MP3, 320 kbps CBR] Darkferse
2 | 0

0 | 443

3

05.06.2017 20:29


Яндекс.Метрика powered by Sphinx


В Н И М А Н И Е
Сайт не распространяет и не хранит электронные версии произведений, а лишь бесплатно и без коммерческой выгоды (не требуя взамен платы,
SMS и т.д.) предоставляет доступ к создаваемому пользователями каталогу ссылок на торрент-файлы, которые содержат только списки хеш-сумм.
Убедительная просьба с жалобами обращаться напрямую к пользователю, разместившему торрент файл.

Вверх