Loading...
Error

(Jazz-Pop, Lounge, Acid Jazz) Gare Du Nord - Stronger! (2015) [FLAC (Image+.Cue), Lossless]

Статистика раздачи
Размер:  269 MB   |    Зарегистрирован:  1 год 10 месяцев   |    Скачан:  3 раза

Полного источника не было: 22 дня

Сидов:  0  |  0 KB/s  ]   Личеров:  0  |  0 KB/s  ]

* - сиды/пиры с внешних источников

   
 
Автор Сообщение

Бишеп Пол:Муж

06-Ноя-2016 21:08

Gare Du Nord - Stronger!

Жанр: Jazz-Pop, Lounge, Acid Jazz
Год выпуска: 2015
Источник: CD
Производитель диска: Play It Again Sam [PIAS] - WL5707BV01
Аудиокодек: FLAC
Тип рипа: Image+.CUE
Битрейт аудио: lossless
Продолжительность: 00:46:23


Треклист:
01. Words Without Meaning
02. Avalanche Of Dreams
03. Gimme That Sexy Thing
04. Stronger!
05. Best Days Of Our Lives!
06. La Dolce Vita (Main Theme)
07. If These walls Could Only Speak
08. Shiny, Dark, Busch, Sky
09. A Different Grain Of Sand (Desert Theme)
10. We Still Grow

Код:

Exact Audio Copy V1.1 from 23. June 2015

EAC extraction logfile from 8. November 2015, 17:32

Gare Du Nord / Stronger

Used drive  : hp      CDDVDW SH-216DB   Adapter: 1  ID: 0

Read mode               : Secure
Utilize accurate stream : Yes
Defeat audio cache      : Yes
Make use of C2 pointers : No

Read offset correction                      : 6
Overread into Lead-In and Lead-Out          : No
Fill up missing offset samples with silence : Yes
Delete leading and trailing silent blocks   : No
Null samples used in CRC calculations       : Yes
Used interface                              : Native Win32 interface for Win NT & 2000

Used output format : Internal WAV Routines
Sample format      : 44.100 Hz; 16 Bit; Stereo

TOC of the extracted CD

     Track |   Start  |  Length  | Start sector | End sector
    ---------------------------------------------------------
        1  |  0:00.00 |  4:35.72 |         0    |    20696   
        2  |  4:35.72 |  5:37.26 |     20697    |    45997   
        3  | 10:13.23 |  3:16.35 |     45998    |    60732   
        4  | 13:29.58 |  4:43.35 |     60733    |    81992   
        5  | 18:13.18 |  4:59.06 |     81993    |   104423   
        6  | 23:12.24 |  4:12.24 |    104424    |   123347   
        7  | 27:24.48 |  4:26.68 |    123348    |   143365   
        8  | 31:51.41 |  3:26.30 |    143366    |   158845   
        9  | 35:17.71 |  3:47.44 |    158846    |   175914   
       10  | 39:05.40 |  7:17.43 |    175915    |   208732   

Range status and errors

Selected range

     Filename E:\POST\Post Nieuw\Gare Du Nord - Stronger (EAC)\Gare Du Nord - Stronger.wav

     Peak level 95.9 %
     Extraction speed 6.7 X
     Range quality 100.0 %
     Test CRC 511F4638
     Copy CRC 511F4638
     Copy OK

No errors occurred

 
AccurateRip summary
 
Track  1  not present in database
Track  2  not present in database
Track  3  not present in database
Track  4  not present in database
Track  5  not present in database
Track  6  not present in database
Track  7  not present in database
Track  8  not present in database
Track  9  not present in database
Track 10  not present in database
 
None of the tracks are present in the AccurateRip database

End of status report

Код:

REM GENRE Jazz-Pop
REM DATE 2015
REM DISCID 840ADF0A
REM COMMENT ExactAudioCopy v1.1
PERFORMER "Gare Du Nord"
TITLE "Stronger"
FILE "Gare Du Nord - Stronger.flac" WAVE
  TRACK 01 AUDIO
    TITLE "Words Without Meaning"
    INDEX 01 00:00:00
  TRACK 02 AUDIO
    TITLE "Avalanche Of Dreams"
    INDEX 00 04:35:15
    INDEX 01 04:35:72
  TRACK 03 AUDIO
    TITLE "Gimme That Sexy Thing"
    INDEX 00 10:10:51
    INDEX 01 10:13:23
  TRACK 04 AUDIO
    TITLE "Stronger!"
    INDEX 00 13:27:18
    INDEX 01 13:29:58
  TRACK 05 AUDIO
    TITLE "Best Days Of Our Lives!"
    INDEX 00 18:12:00
    INDEX 01 18:13:18
  TRACK 06 AUDIO
    TITLE "La Dolce Vita (Main Theme)"
    INDEX 00 23:07:49
    INDEX 01 23:12:24
  TRACK 07 AUDIO
    TITLE "If These walls Could Only Speak"
    INDEX 01 27:24:48
  TRACK 08 AUDIO
    TITLE "Shiny, Dark, Busch, Sky"
    INDEX 01 31:51:41
  TRACK 09 AUDIO
    TITLE "A Different Grain Of Sand (Desert Theme)"
    INDEX 01 35:17:71
  TRACK 10 AUDIO
    TITLE "We Still Grow"
    INDEX 01 39:05:40

Этот торрент недоступен для скачивания без регистрации, однако доступен по публичной magnet-ссылке (источники с публичных трекеров). Перед использованием ссылки прочтите, пожалуйста Пользовательское соглашение, а также как можно дольше оставайтесь на раздаче! Для того, чтобы скачать сам торрент-файл (который видит больше источников), а также для того, чтобы поблагодарить релизера, вам необходимо зарегистрироваться. Если регистрироваться лень - вы можете также попробовать скачать релиз по нашим партнерским ссылкам ниже. Кроме того, зарегистрированным пользователям не показывается всплывающая реклама при скачивании.

[underverse.su].t72510.torrent
Трекер: Зарегистрирован   [ 06.11.2016 21:08 ]  

Статус: проверено (by Бишеп at 06.11.2016 21:08)
Поблагодарили: 1 человек
Тип торрента: публичный - доступные источники с открытых трекеров: 
Размер: 269 MB (занимает 0,06 DVDR, для записи нужно 1 болванка DVDR/RW)
 
 
Похожие темы
Форум Тема Автор Торрент Отв. Посл. сооб.
Nu Jazz, Acid Jazz, Future Jazz (Lossless) (Jazz-Pop, Experimental, Electronic) 5K HD - And to in A (2017) [FLAC (Tracks), lossless] Web Darkferse
2 | 0

0 | 473

4

07.01.2018 22:13


Яндекс.Метрика powered by Sphinx


В Н И М А Н И Е
Сайт не распространяет и не хранит электронные версии произведений, а лишь бесплатно и без коммерческой выгоды (не требуя взамен платы,
SMS и т.д.) предоставляет доступ к создаваемому пользователями каталогу ссылок на торрент-файлы, которые содержат только списки хеш-сумм.
Убедительная просьба с жалобами обращаться напрямую к пользователю, разместившему торрент файл.

Вверх