Loading...
Error

Тайная жизнь домашних животных / The Secret Life of Pets (Ярроу Чейни, Крис Рено) [2016 г., мультфильм, комедия, семейный, HDRip] Dub (Line)

Статистика раздачи
Размер:  1,37 GB   |    Зарегистрирован:  4 месяца 21 день   |    Скачан:  9 раз

Полного источника не было: 9 дней

Сидов:  0  |  0 KB/s  ]   Личеров:  0  |  0 KB/s  ]

* - сиды/пиры с внешних источников

   
 
Автор Сообщение

makkol Пол:Муж

05-Ноя-2016 21:23

Тайная жизнь домашних животных
The Secret Life of Pets
«Думаете, они ждут вас у порога весь день?»


Год выпуска: 2016
Жанр: мультфильм, комедия, семейный
Производство: Япония , США [Dentsu / Fuji Television Network Inc., Illumination Entertainment, Universal Pictures]
Режиссер: Ярроу Чейни, Крис Рено
Роли озвучивали: Луис С.К., Эрик Стоунстрит, Кевин Харт, Дженни Слейт, Элли Кемпер, Альберт Брукс, Лэйк Белл, Дэна Карви, Хэннибал Бёресс, Бобби Мойнахан
Сюжет фильма:
Что делают домашние животные, пока хозяева пропадают на работе? С тоской смотрят в окно? Смиренно дремлют на коврике у двери? Как бы не так. Они ведут свою тайную жизнь.

  • Мировая премьера: 18 июня 2016
  • Российская премьера: 18 августа 2016


Качество видео: HDRip

Продолжительность: 01:26:27
Формат: AVI
Видео: XviD, 720x384 (1.85:1), 23.976 fps, 1873 kbps
Аудио: русский, дублированный (чистый звук), AC3 2.0, 48 kHz, 384 kbps

Код:

Формат                                   : AVI
Формат/Информация                        : Audio Video Interleave
Размер файла                             : 1,37 Гбайт
Продолжительность                        : 1 ч. 26 м.
Общий поток                              : 2266 Кбит/сек
Программа кодирования                    : VirtualDubMod 1.5.10.2 (build 2540/release)
Библиотека кодирования                   : VirtualDubMod build 2540/release

Видео
Идентификатор                            : 0
Формат                                   : MPEG-4 Visual
Профиль формата                          : Advanced Simple@L5
Параметр BVOP формата                    : 2
Параметр QPel формата                    : Нет
Параметр GMC формата                     : Без точки перехода
Параметр матрицы формата                 : Default (MPEG)
Идентификатор кодека                     : XVID
Идентификатор кодека/Подсказка           : XviD
Продолжительность                        : 1 ч. 26 м.
Битрейт                                  : 1873 Кбит/сек
Ширина                                   : 720 пикселей
Высота                                   : 384 пикселя
Соотношение сторон                       : 1,85:1
Частота кадров                           : 23,976 кадра/сек
Цветовое пространство                    : YUV
Субдискретизация насыщенности            : 4:2:0
Битовая глубина                          : 8 бит
Тип развёртки                            : Прогрессивная
Метод сжатия                             : С потерями
Бит/(Пиксели*Кадры)                      : 0.283
Размер потока                            : 1,13 Гбайт (83%)
Библиотека кодирования                   : XviD 1.2.1 (UTC 2008-12-04)

Аудио
Идентификатор                            : 1
Формат                                   : AC-3
Формат/Информация                        : Audio Coding 3
Расширение режима                        : CM (complete main)
Параметр Endianness формата              : Big
Идентификатор кодека                     : 2000
Продолжительность                        : 1 ч. 26 м.
Вид битрейта                             : Постоянный
Битрейт                                  : 384 Кбит/сек
Каналы                                   : 2 канала
Расположение каналов                     : Front: L R
Частота                                  : 48,0 КГц
Битовая глубина                          : 16 бит
Метод сжатия                             : С потерями
Размер потока                            : 237 Мбайт (17%)
Выравнивание                             : Разделение по промежуткам
Продолжительность промежутка             : 42  мс. (1,00 видеокадр)
Время предзагрузки промежутка            : 500  мс.


picpicpicpicpic
Для увеличения картинки щелкните мышкой по превью

Этот торрент недоступен для скачивания без регистрации, однако доступен по публичной magnet-ссылке (источники с публичных трекеров). Перед использованием ссылки прочтите, пожалуйста Пользовательское соглашение, а также как можно дольше оставайтесь на раздаче! Для того, чтобы скачать сам торрент-файл (который видит больше источников), а также для того, чтобы поблагодарить релизера, вам необходимо зарегистрироваться. Если регистрироваться лень - вы можете также попробовать скачать релиз по нашим партнерским ссылкам ниже.

[underverse.su].t72395.torrent
Трекер: Зарегистрирован   [ 05.11.2016 21:23 ]  

Статус: поглощено (by 90ytr90 at 07.01.2017 16:25)
Поблагодарили: пока никто не поблагодарил...
Тип торрента: публичный - доступные источники с открытых трекеров: 
Размер: 1,37 GB (занимает 0,31 DVDR, для записи нужно 1 болванка DVDR/RW)
 
 
Похожие темы
Форум Тема Автор Торрент Отв. Посл. сооб.
Зарубежные мультфильмы Тайная жизнь домашних животных / The Secret Life of Pets (Ярроу Чейни / Yarrow Cheney, Крис Рено / Chris Renaud) [2016 г., мультфильм, комедия, семейный, BDRip-AVC] Dub + Original (Eng) + Sub (Rus,... 90ytr90
2 | 0

0 | 413

7

13.12.2016 03:07

Зарубежные мультфильмы Тайная жизнь домашних животных / The Secret Life of Pets (Ярроу Чейни / Yarrow Cheney, Крис Рено / Chris Renaud) [2016 г., мультфильм, комедия, семейный, BDRip-AVC] Dub + Sub (Rus) 90ytr90
1 | 0

0 | 386

2

13.12.2016 03:03

Зарубежные мультфильмы Тайная жизнь домашних животных / The Secret Life of Pets (Ярроу Чейни / Yarrow Cheney, Крис Рено / Chris Renaud) [2016 г., мультфильм, комедия, семейный, BDRip] Dub + Sub (Rus) 90ytr90
7 | 0

0 | 417

12

13.12.2016 02:55

Зарубежные мультфильмы Тайная жизнь домашних животных / The Secret Life of Pets (Ярроу Чейни / Yarrow Cheney, Крис Рено / Chris Renaud) [2016 г., мультфильм, комедия, семейный, BDRip] Dub + Sub (Rus) 90ytr90
2 | 0

0 | 399

3

13.12.2016 02:51

BBC Тайная жизнь мошкары / The Secret Life of Midges (Колин Мюррей) [2015 г., документальный, научно-познавательный, HDTVRip 720p] Dub ARI71
1 | 0

0 | 838

5

30.06.2016 09:48

Научно-популярные фильмы Тайная жизнь Eвропейских млекопитающих: История Волка / The Secret Life Of European Mammals: The Wolf's Story [2003 г., документальный, TVRip] VO ARI71
0 | 0

0 | 622

1

24.08.2015 19:43

Научно-популярные фильмы Тайная жизнь европейских млекопитающих: Страж сада - ёж / The Secret Life Of European Mammals: The Garden Warrior - The Hedgehog (Николя Груа) [2007 г., документальный, флора, фауна, TVRip] VO ARI71
2 | 0

0 | 579

3

17.08.2016 20:49

Зарубежное кино [HDDVDRip / BDRip / WEB-DL / HDTV 1080/720р] Тайная жизнь домашних животных / The Secret Life of Pets (Ярроу Чейни / Yarrow Cheney, Крис Рено / Chris Renaud) [2016 г., мультфильм, комедия, семейный, BDRip 1080p] 2xDub (Rus, Ukr) + Original... 90ytr90
26 | 1

0 | 345

5

07.01.2017 14:44

T Мультфильмы [HDDVDRip / BDRip / WEB-DL / HDTV 1080/720р] Тайная жизнь домашних животных / The Secret Life of Pets (Ярроу Чейни, Крис Рено) [2016 г., мультфильм, комедия, семейный, BDRip 1080p] Dub (Line) + Original makkol
23 | 2

0 | 146

4

05.11.2016 21:44

Мультфильмы [HDDVDRip / BDRip / WEB-DL / HDTV 1080/720р] Тайная жизнь домашних животных / The Secret Life of Pets (Ярроу Чейни / Yarrow Cheney, Крис Рено / Chris Renaud) [2016 г., мультфильм, комедия, семейный, BDRip 1080p] Dub + Original (Eng) + Sub (Rus,... 90ytr90
1 | 0

0 | 417

5

13.12.2016 16:01

07-Янв-2017 16:27

Топик был перенесен из форума Зарубежные мультфильмы в форум Для поглощенных раздач

Причина переноса: http://underverse.me/viewtopic.php?t=73570
90ytr90
 

Яндекс.Метрика powered by Sphinx


В Н И М А Н И Е
Сайт не распространяет и не хранит электронные версии произведений, а лишь бесплатно и без коммерческой выгоды (не требуя взамен платы,
SMS и т.д.) предоставляет доступ к создаваемому пользователями каталогу ссылок на торрент-файлы, которые содержат только списки хеш-сумм.
Убедительная просьба с жалобами обращаться напрямую к пользователю, разместившему торрент файл.

Вверх