Loading...
Error

Восхождение Ларисы Шепитько (Нонна Бокарева) [2008 г., документальный, биография, киноведение, культура, SatRip]

Статистика раздачи
Размер:  529 MB   |    Зарегистрирован:  29 дней   |    Скачан:  1 раз
Сидов:  1  |  0 KB/s  ]   Личеров:  0  |  0 KB/s  ]

* - сиды/пиры с внешних источников

   
 
Автор Сообщение

ARI71 Пол:Муж

05-Ноя-2016 19:35

Восхождение Ларисы Шепитько


Год выпуска: 2008
Жанр: документальный, биография, киноведение, культура
Страна: Россия «Студия 8»
Режиссер: Нонна Бокарева
Сюжет фильма:
Фильм о фильме. 1976 год. Лариса Шепитько заканчивает "Восхождение" - фильм о войне, который неизбежно должен попасть на полку, потому что "вместо партизанской истории", - как считают контролирующие органы, - снята "религиозная притча с мистическим оттенком". Лента имеет оглушительный успех и великолепную прокатную судьбу: в Риге она берет главный приз, на Берлинском фестивале - престижнейшую премию ФИНПРЕССИ; и в итоге закупается сорока странами мира. Кроме этого фильм получает приз Ватикана за лучшее воплощение образа Иисуса Христа на экране.

Лари́са Ефи́мовна Шепи́тько (6 января 1938, Артёмовск, Донецкая область, Украинская ССР, СССР — 2 июля 1979, Калининская область, РСФСР, СССР) — советский кинорежиссёр, сценарист, актриса. Заслуженный деятель искусств РСФСР (1974).
Качество видео: SatRip

Продолжительность: 00:45:10
Формат: AVI
Видео: XviD, 704x528, 1499 kbps
Аудио: русский, (оригинал), MP3 2.0, 128.00 kbps

Код:

Общее
Полное имя : D:\Восхождение Ларисы Шепитько.2008.XviD.SATRip.DaVinci.avi
Формат : AVI
Формат/Информация : Audio Video Interleave
Размер файла : 529 Мбайт
Продолжительность : 45 м.
Общий поток : 1636 Кбит/сек
Библиотека кодирования : VirtualDub build 34703/release

Видео
Идентификатор : 0
Формат : MPEG-4 Visual
Профиль формата : Advanced Simple@L5
Параметр BVOP формата : 2
Параметр QPel формата : Нет
Параметр GMC формата : Без точки перехода
Параметр матрицы формата : Default (H.263)
Режим смешивания : Сжатый битовый поток
Идентификатор кодека : XVID
Идентификатор кодека/Подсказка : XviD
Продолжительность : 45 м.
Битрейт : 1499 Кбит/сек
Ширина : 704 пикселя
Высота : 528 пикселей
Соотношение сторон : 4:3
Частота кадров : 25,000 кадров/сек
Цветовое пространство : YUV
Субдискретизация насыщенности : 4:2:0
Битовая глубина : 8 бит
Тип развёртки : Прогрессивная
Метод сжатия : С потерями
Бит/(Пиксели*Кадры) : 0.161
Размер потока : 484 Мбайт (92%)
Библиотека кодирования : XviD 1.2.1 (UTC 2008-12-04)

Аудио
Идентификатор : 1
Формат : MPEG Audio
Версия формата : Version 1
Профиль формата : Layer 3
Режим : Joint stereo
Расширение режима : MS Stereo
Идентификатор кодека : 55
Идентификатор кодека/Подсказка : MP3
Продолжительность : 45 м.
Вид битрейта : Постоянный
Битрейт : 128 Кбит/сек
Каналы : 2 канала
Частота : 48,0 КГц
Метод сжатия : С потерями
Размер потока : 41,4 Мбайт (8%)
Выравнивание : Разделение по промежуткам
Продолжительность промежутка : 40 мс. (1,00 видеокадр)
Время предзагрузки промежутка : 500 мс.
picpicpicpicpic
Для увеличения картинки щелкните мышкой по превью

Этот торрент недоступен для скачивания без регистрации, однако доступен по публичной magnet-ссылке (источники с публичных трекеров). Перед использованием ссылки прочтите, пожалуйста Пользовательское соглашение, а также как можно дольше оставайтесь на раздаче! Для того, чтобы скачать сам торрент-файл (который видит больше источников), а также для того, чтобы поблагодарить релизера, вам необходимо зарегистрироваться. Если регистрироваться лень - вы можете также попробовать скачать релиз по нашим партнерским ссылкам ниже.

[underverse.su].t72390.torrent
Трекер: Зарегистрирован   [ 05.11.2016 19:35 ]  

Статус: проверено (by ARI71 at 05.11.2016 19:37)
Поблагодарили: пока никто не поблагодарил...
Тип торрента: публичный - доступные источники с открытых трекеров: 
Размер: 529 MB (занимает 0,12 DVDR, для записи нужно 1 болванка DVDR/RW)
 
 
Похожие темы
Форум Тема Автор Торрент Отв. Посл. сооб.
T Зарубежное кино [DVDRip, Low-Res HDRip, и т.д.] Восхождение Сокола / Falcon Rising (Эрни Барбараш) [2014 г., Боевик, Приключения, WEB-DLRip] VO (RUS, R.A.I.M.) Ведьмочка
3 | 0

0 | 812

38

28.09.2014 10:39

T Зарубежное кино [DVDRip, Low-Res HDRip, и т.д.] Восхождение Юпитер / Jupiter Ascending (Энди Вачовски, Лана Вачовски) [2015 г., фантастика, боевик, приключения, WEB-DLRip] Dub [iTunes] Паукан
46 | 0

0 | 1137

100

22.04.2015 10:49

T Зарубежное кино [DVDRip, Low-Res HDRip, и т.д.] Восхождение Юпитер / Jupiter Ascending (Энди Вачовски, Лана Вачовски) [2015 г., фантастика, боевик, приключения, WEB-DLRip] Dub [iTunes] Паукан
3 | 0

0 | 1104

111

22.04.2015 10:51

T Зарубежное кино [DVDRip, Low-Res HDRip, и т.д.] Восхождение Юпитер / Jupiter Ascending (Энди Вачовски / Andy Wachowski, Лана Вачовски / Lana Wachowski) [2014 г., фантастика, фэнтези, боевик, приключения, HDRip] Dub (iTunes) 90ytr90
206 | 1

1 | 783

72

15.05.2015 19:13

Зарубежное кино [DVDRip, Low-Res HDRip, и т.д.] Восхождение Юпитер / Jupiter Ascending (Энди Вачовски, Лана Вачовски) [2015 г., фантастика, боевик, приключения, HDRip] AVO [Юрий Живов] Паукан
24 | 0

0 | 611

20

30.08.2015 11:05

Зарубежное кино [DVDRip, Low-Res HDRip, и т.д.] Восхождение Крэйсов / The Rise of the Krays (Закари Адлер) [2015 г., криминал, HDRip] DVO makkol
7 | 0

0 | 552

57

28.11.2015 22:42

Зарубежное кино [DVDRip, Low-Res HDRip, и т.д.] Восхождение / The Climb / A Hero's Climb (Боб Свэм) [1997 г., драма, DVDRip] AVO (Сербин) + Original makkol
3 | 0

0 | 475

1

23.07.2016 11:12

Кино СССР Восхождение (Лариса Шепитько) [1976 г., драма, военный, DVDRip] ARI71
12 | 0

0 | 727

6

25.03.2016 20:41

BBC Восхождение женщины / The Ascent of Woman (1-4 серии из 4) / (Хьюго МакГрегор) [2015 г., документальный, история, археология, исследования, HDTVRip 720p] DVO + Original (Eng) ARI71
0 | 0

2 | 989

1

11.10.2016 11:23

T Зарубежное кино [HDDVDRip / BDRip / WEB-DL / HDTV 1080/720р] Восхождение Сокола / Falcon Rising (Эрни Барбараш) [2014 г., Боевик, Приключения, WEB-DL 720p] VO (RUS, R.A.I.M.) + Original (ENG) + Subs (ENG) Ведьмочка
0 | 0

0 | 871

29

28.09.2014 10:44


Яндекс.Метрика powered by Sphinx


В Н И М А Н И Е
Сайт не распространяет и не хранит электронные версии произведений, а лишь бесплатно и без коммерческой выгоды (не требуя взамен платы,
SMS и т.д.) предоставляет доступ к создаваемому пользователями каталогу ссылок на торрент-файлы, которые содержат только списки хеш-сумм.
Убедительная просьба с жалобами обращаться напрямую к пользователю, разместившему торрент файл.

Вверх