Loading...
Error

Тото Кутуньо. L'italiano vero (Ольга Белан) [2013 г., документальный, биография, SatRip]

Статистика раздачи
Размер:  459 MB   |    Зарегистрирован:  1 месяц 3 дня   |    Скачан:  0 раз

Полного источника не было: 1 месяц 2 дня

Сидов:  0  |  0 KB/s  ]   Личеров:  0  |  0 KB/s  ]

* - сиды/пиры с внешних источников

   
 
Автор Сообщение

ARI71 Пол:Муж

05-Ноя-2016 12:12

Тото Кутуньо. L'italiano vero


Год выпуска: 2013
Жанр: документальный, биография
Страна: Россия Групп Продакшн
Режиссер: Ольга Белан
В ролях: Розанна Кутуньо, Исидор Надолини, Гвидо Манусарди, Паоло Манчини, Марк Тишман, Диана Гурцкая, Артур Гаспарян
Сюжет фильма:
Он написал сотни песен, многие из которых занимали первые строчки хит-парадов. Их пели Адриано Челентано, Джо Дассен, Далида, Мирей Матьё, Рэй Чарльз, Ринго Старр… Он поёт сам – и остается любимцем женщин даже в свои семьдесят. Да, не поверите: 7 июля Тото Кутуньо – 70! Фильм расскажет об истории сотрудничества Тото Кутуньо и Джо Дассена, Рея Чарльза и многих других звёзд мировой эстрады. Зрители окунутся в атмосферу легендарного фестиваля в Сан-Ремо, где музыкант впервые представил свой самый главный хит. Песня "Итальянец" мгновенно облетела весь мир, а сам Тото Кутуньо стал символом Италии.

Сальвато́ре (То́то) Куту́ньо (итал. Salvatore "Toto" Cutugno; род. 7 июля 1943 года, Фоздиново, Масса-Каррара, Тоскана, Италия) — итальянский певец и композитор.
Качество видео: SatRip

Продолжительность: 00:39:15
Формат: AVI
Видео: XviD, 704x416, 1495 kbps
Аудио: русский, (оригинал), MP3 2.0, 128.00 kbps

Код:

Общее
Полное имя : D:\Toto.Cutugno.2013.SATRip.KZ.avi
Формат : AVI
Формат/Информация : Audio Video Interleave
Размер файла : 459 Мбайт
Продолжительность : 39 м.
Общий поток : 1633 Кбит/сек
Программа кодирования : VirtualDubMod 1.5.10.2 (build 2540/release)
Библиотека кодирования : VirtualDubMod build 2540/release

Видео
Идентификатор : 0
Формат : MPEG-4 Visual
Профиль формата : Advanced Simple@L5
Параметр BVOP формата : 2
Параметр QPel формата : Нет
Параметр GMC формата : Без точки перехода
Параметр матрицы формата : Default (MPEG)
Идентификатор кодека : XVID
Идентификатор кодека/Подсказка : XviD
Продолжительность : 39 м.
Битрейт : 1495 Кбит/сек
Ширина : 704 пикселя
Высота : 416 пикселей
Соотношение сторон : 5:3
Частота кадров : 25,000 кадров/сек
Цветовое пространство : YUV
Субдискретизация насыщенности : 4:2:0
Битовая глубина : 8 бит
Тип развёртки : Прогрессивная
Метод сжатия : С потерями
Бит/(Пиксели*Кадры) : 0.204
Размер потока : 420 Мбайт (92%)
Библиотека кодирования : XviD 64

Аудио
Идентификатор : 1
Формат : MPEG Audio
Версия формата : Version 1
Профиль формата : Layer 3
Режим : Joint stereo
Расширение режима : MS Stereo
Идентификатор кодека : 55
Идентификатор кодека/Подсказка : MP3
Продолжительность : 39 м.
Вид битрейта : Постоянный
Битрейт : 128 Кбит/сек
Каналы : 2 канала
Частота : 48,0 КГц
Метод сжатия : С потерями
Размер потока : 35,9 Мбайт (8%)
Выравнивание : Соединение по промежуткам
Продолжительность промежутка : 40 мс. (1,00 видеокадр)
Время предзагрузки промежутка : 504 мс.
Библиотека кодирования : LAME3.90.3
picpicpicpicpic
Для увеличения картинки щелкните мышкой по превью

Этот торрент недоступен для скачивания без регистрации, однако доступен по публичной magnet-ссылке (источники с публичных трекеров). Перед использованием ссылки прочтите, пожалуйста Пользовательское соглашение, а также как можно дольше оставайтесь на раздаче! Для того, чтобы скачать сам торрент-файл (который видит больше источников), а также для того, чтобы поблагодарить релизера, вам необходимо зарегистрироваться. Если регистрироваться лень - вы можете также попробовать скачать релиз по нашим партнерским ссылкам ниже.

[underverse.su].t72317.torrent
Трекер: Зарегистрирован   [ 05.11.2016 12:12 ]  

Статус: проверено (by ARI71 at 05.11.2016 12:35)
Поблагодарили: пока никто не поблагодарил...
Тип торрента: публичный - доступные источники с открытых трекеров: 
Размер: 459 MB (занимает 0,1 DVDR, для записи нужно 1 болванка DVDR/RW)
 
 

Яндекс.Метрика powered by Sphinx


В Н И М А Н И Е
Сайт не распространяет и не хранит электронные версии произведений, а лишь бесплатно и без коммерческой выгоды (не требуя взамен платы,
SMS и т.д.) предоставляет доступ к создаваемому пользователями каталогу ссылок на торрент-файлы, которые содержат только списки хеш-сумм.
Убедительная просьба с жалобами обращаться напрямую к пользователю, разместившему торрент файл.

Вверх