Loading...
Error

Дуб - искусство выживания / Oak Tree: Nature's Greatest Survivor (Ник Стэйси) [2015 г., документальный, научно-популярный, история, HDTVRip 720p] DVO + Original (Eng)

Статистика раздачи
Размер:  2,08 GB   |    Зарегистрирован:  1 месяц 1 день   |    Скачан:  2 раза

Полного источника не было: 17 часов

Сидов:  0  |  0 KB/s  ]   Личеров:  0  |  0 KB/s  ]

* - сиды/пиры с внешних источников

   
 
Автор Сообщение

ARI71 Пол:Муж

05-Ноя-2016 07:43

Дуб - искусство выживания / Oak Tree: Nature's Greatest Survivor


Год выпуска: 2015
Жанр: документальный, научно-популярный, история
Страна: Великобритания Furnace Limited for BBC
Режиссер: Ник Стэйси
Ведущий: - энтомолог Джордж Мак-Гавин
Сюжет фильма:
Этот фильм - наполовину научный, наполовину исторический - повествует о богатой событиями и драмами жизни дуба. Он хочет показать зрителям, насколько дуб - это идеальный представитель своего вида, и рассказывает, как проходит жизнь этого почтенного дерева.
Какие удивительные изменения происходят в дереве, чтобы оно благополучно переживало смену времен года? Вы увидите, как осенью корни вытягивают драгоценные питательные вещества, и какие сложные стратегии дерево использует зимой, чтобы выдержать ветра и морозы.


Качество видео: HDTVRip 720p

Продолжительность: 01:27:57
Формат: MKV
Видео: AVC (x264), 1280x720, 3000 kbps
Аудио #1: русский, двухголосый [профессиональный], AC3 2.0, 192.00 kbps
Аудио #2: английский, [оригинал], AC3 2.0, 192.00 kbps

Автор Rip'а: skorpionN

Код:

Общее
Уникальный идентификатор : 213893533802349801422532421092566895268 (0xA0EA656B23CF707FA1D1D019BBD80AA4)
Полное имя : D:\BBC_Oak Tree_Natures Greatest Survivor_720p.mkv
Формат : Matroska
Версия формата : Version 4 / Version 2
Размер файла : 2,08 Гбайт
Продолжительность : 1 ч. 27 м.
Режим общего битрейта : Переменный
Общий поток : 3383 Кбит/сек
Дата кодирования : UTC 2016-11-04 16:04:37
Программа кодирования : mkvmerge v7.3.0 ('Nouages') 64bit built on Oct 22 2014 18:53:34
Библиотека кодирования : libebml v1.3.0 + libmatroska v1.4.1

Видео
Идентификатор : 1
Формат : AVC
Формат/Информация : Advanced Video Codec
Профиль формата : High@L4.1
Параметр CABAC формата : Да
Параметр ReFrames формата : 3 кадра
Идентификатор кодека : V_MPEG4/ISO/AVC
Продолжительность : 1 ч. 27 м.
Вид битрейта : Переменный
Битрейт : 3000 Кбит/сек
Максимальный битрейт : 8000 Кбит/сек
Ширина : 1280 пикселей
Высота : 720 пикселей
Соотношение сторон : 16:9
Режим частоты кадров : Постоянный
Частота кадров : 25,000 кадров/сек
Стандарт вещания : NTSC
Цветовое пространство : YUV
Субдискретизация насыщенности : 4:2:0
Битовая глубина : 8 бит
Тип развёртки : Прогрессивная
Бит/(Пиксели*Кадры) : 0.130
Размер потока : 1,84 Гбайт (89%)
Библиотека кодирования : x264 core 114
Настройки программы : cabac=1 / ref=3 / deblock=1:0:0 / analyse=0x3:0x113 / me=hex / subme=7 / psy=1 / psy_rd=1.00:0.00 / mixed_ref=1 / me_range=16 / chroma_me=1 / trellis=1 / 8x8dct=1 / cqm=2 / deadzone=21,11 / fast_pskip=1 / chroma_qp_offset=-4 / threads=6 / sliced_threads=0 / slices=1 / nr=0 / decimate=1 / interlaced=0 / constrained_intra=0 / bframes=3 / b_pyramid=0 / b_adapt=1 / b_bias=0 / direct=1 / weightb=1 / open_gop=0 / weightp=2 / keyint=250 / keyint_min=25 / scenecut=40 / intra_refresh=0 / rc_lookahead=40 / rc=2pass / mbtree=1 / bitrate=3000 / ratetol=1.0 / qcomp=0.60 / qpmin=5 / qpmax=69 / qpstep=4 / cplxblur=20.0 / qblur=0.5 / vbv_maxrate=8000 / vbv_bufsize=7995 / nal_hrd=vbr / ip_ratio=1.40 / aq=1:1.00
Default : Да
Forced : Нет
Цветовой диапазон : Limited
Основные цвета : BT.709
Характеристики трансфера : BT.709
Коэффициенты матрицы : BT.709

Аудио #1
Идентификатор : 2
Формат : AC-3
Формат/Информация : Audio Coding 3
Расширение режима : CM (complete main)
Параметр Endianness формата : Big
Идентификатор кодека : A_AC3
Продолжительность : 1 ч. 27 м.
Вид битрейта : Постоянный
Битрейт : 192 Кбит/сек
Каналы : 2 канала
Расположение каналов : Front: L R
Частота : 48,0 КГц
Частота кадров : 31,250 кадров/сек (1536 spf)
Метод сжатия : С потерями
Размер потока : 121 Мбайт (6%)
Язык : Russian
Default : Да
Forced : Нет

Аудио #2
Идентификатор : 3
Формат : AC-3
Формат/Информация : Audio Coding 3
Расширение режима : CM (complete main)
Параметр Endianness формата : Big
Идентификатор кодека : A_AC3
Продолжительность : 1 ч. 27 м.
Вид битрейта : Постоянный
Битрейт : 192 Кбит/сек
Каналы : 2 канала
Расположение каналов : Front: L R
Частота : 48,0 КГц
Частота кадров : 31,250 кадров/сек (1536 spf)
Метод сжатия : С потерями
Размер потока : 121 Мбайт (6%)
Язык : English
Default : Нет
Forced : Да
picpicpicpic
Для увеличения картинки щелкните мышкой по превью

Этот торрент недоступен для скачивания без регистрации, однако доступен по публичной magnet-ссылке (источники с публичных трекеров). Перед использованием ссылки прочтите, пожалуйста Пользовательское соглашение, а также как можно дольше оставайтесь на раздаче! Для того, чтобы скачать сам торрент-файл (который видит больше источников), а также для того, чтобы поблагодарить релизера, вам необходимо зарегистрироваться. Если регистрироваться лень - вы можете также попробовать скачать релиз по нашим партнерским ссылкам ниже.

[underverse.su].t72277.torrent
Трекер: Зарегистрирован   [ 05.11.2016 07:43 ]  

Статус: проверено (by ARI71 at 05.11.2016 07:47)
Поблагодарили: пока никто не поблагодарил...
Тип торрента: публичный - доступные источники с открытых трекеров: 
Размер: 2,08 GB (занимает 0,47 DVDR, для записи нужно 1 болванка DVDR/RW)
 
 

ARI71 Пол:Муж

05-Ноя-2016 07:45

Приятного всем просмотра!

Голосуй за трекер!!




Яндекс.Метрика powered by Sphinx


В Н И М А Н И Е
Сайт не распространяет и не хранит электронные версии произведений, а лишь бесплатно и без коммерческой выгоды (не требуя взамен платы,
SMS и т.д.) предоставляет доступ к создаваемому пользователями каталогу ссылок на торрент-файлы, которые содержат только списки хеш-сумм.
Убедительная просьба с жалобами обращаться напрямую к пользователю, разместившему торрент файл.

Вверх