Loading...
Error

Мальчики и гиперпространство / Ребята Орз / Jiong nan hai / Orz Boys (Ян Я-Чжэ) [2008 г., драма, DVDRip] VO + Original + Sub

Статистика раздачи
Размер:  1,46 GB   |    Зарегистрирован:  1 месяц 4 дня   |    Скачан:  0 раз

Полного источника не было: Никогда

Сидов:  0  |  0 KB/s  ]   Личеров:  0  |  0 KB/s  ]

* - сиды/пиры с внешних источников

   
 
Автор Сообщение

makkol Пол:Муж

04-Ноя-2016 22:12

Мальчики и гиперпространство / Ребята Орз
Jiong nan hai / Orz Boys


Год выпуска: 2008
Жанр: драма
Производство: Тайвань [1 Production Film]
Режиссер: Ян Я-Чжэ
В ролях: Ли Гуань-и, Сюй Цзи-вэнь, Мэй Фан, Линь На-доу, Бань Цзинь-юй
Сюжет фильма:
Двое мальчишек – лучшие друзья и источник проблем в школе. Они дразнят девочек, придумывают шалости и постоянно лгут одноклассникам, за что получили прозвища “Первый лжец” и “Второй лжец”. Один рассказывает другому об удивительном “Гиперпространстве”. Оказавшись там, сразу становишься взрослым и живёшь счастливой жизнью, все в земном мире забывают о тебе. И теперь, единственная цель мальчишек – попасть в гиперпространство, но для этого, им придётся пройти через настоящие взрослые трудности…

  • Мировая премьера: 5 сентября 2008


Качество видео: DVDRip

Продолжительность: 01:43:59
Формат: AVI
Видео: XviD, 720x400 (16:9), 23.976 fps, 1424 kbps
Аудио #1: русский, любительский одноголосый закадровый, AC3 2.0, 48 kHz, 192 kbps
Аудио #2: китайский, оригинал, AC3 2.0, 48 kHz, 384 kbps
Субтитры: русские внешние, SRT

Код:

Format                                   : AVI
Format/Info                              : Audio Video Interleave
File size                                : 1.46 GiB
Duration                                 : 1h 43mn
Overall bit rate                         : 2 014 Kbps
Writing application                      : VirtualDubMod 1.5.10.2 (build 2542/release)
Writing library                          : VirtualDubMod build 2542/release

Video
ID                                       : 0
Format                                   : MPEG-4 Visual
Format profile                           : Advanced Simple@L5
Format settings, BVOP                    : 1
Format settings, QPel                    : No
Format settings, GMC                     : No warppoints
Format settings, Matrix                  : Custom
Codec ID                                 : XVID
Codec ID/Hint                            : XviD
Duration                                 : 1h 43mn
Bit rate                                 : 1 424 Kbps
Width                                    : 720 pixels
Height                                   : 400 pixels
Display aspect ratio                     : 16:9
Frame rate                               : 23.976 fps
Color space                              : YUV
Chroma subsampling                       : 4:2:0
Bit depth                                : 8 bits
Scan type                                : Progressive
Compression mode                         : Lossy
Bits/(Pixel*Frame)                       : 0.206
Stream size                              : 1.03 GiB (71%)
Writing library                          : XviD 1.2.1 (UTC 2008-12-04)

Audio #1
ID                                       : 1
Format                                   : AC-3
Format/Info                              : Audio Coding 3
Mode extension                           : CM (complete main)
Format settings, Endianness              : Big
Codec ID                                 : 2000
Duration                                 : 1h 43mn
Bit rate mode                            : Constant
Bit rate                                 : 192 Kbps
Channel(s)                               : 2 channels
Channel positions                        : Front: L R
Sampling rate                            : 48.0 KHz
Bit depth                                : 16 bits
Compression mode                         : Lossy
Stream size                              : 143 MiB (10%)
Alignment                                : Split accross interleaves
Interleave, duration                     : 42 ms (1.00 video frame)
Interleave, preload duration             : 500 ms
Language                                 : Russian

Audio #2
ID                                       : 2
Format                                   : AC-3
Format/Info                              : Audio Coding 3
Mode extension                           : CM (complete main)
Format settings, Endianness              : Big
Codec ID                                 : 2000
Duration                                 : 1h 43mn
Bit rate mode                            : Constant
Bit rate                                 : 384 Kbps
Channel(s)                               : 2 channels
Channel positions                        : Front: L R
Sampling rate                            : 48.0 KHz
Bit depth                                : 16 bits
Compression mode                         : Lossy
Stream size                              : 286 MiB (19%)
Alignment                                : Split accross interleaves
Interleave, duration                     : 42 ms (1.00 video frame)
Interleave, preload duration             : 500 ms
Language                                 : Chinese
Перевод: Сергей Скворцов
Озвучивание: den904
Сведение аудио: Diablo
Организация релиза: Minhers76
Автор описания: Сергей Скворцов
Релиз:
picpicpicpicpic
Для увеличения картинки щелкните мышкой по превью

Этот торрент недоступен для скачивания без регистрации, однако доступен по публичной magnet-ссылке (источники с публичных трекеров). Перед использованием ссылки прочтите, пожалуйста Пользовательское соглашение, а также как можно дольше оставайтесь на раздаче! Для того, чтобы скачать сам торрент-файл (который видит больше источников), а также для того, чтобы поблагодарить релизера, вам необходимо зарегистрироваться. Если регистрироваться лень - вы можете также попробовать скачать релиз по нашим партнерским ссылкам ниже.

[underverse.su].t72251.torrent
Трекер: Зарегистрирован   [ 04.11.2016 22:12 ]  

Статус: проверено (by Паукан at 05.11.2016 08:22)
Поблагодарили: пока никто не поблагодарил...
Тип торрента: публичный - доступные источники с открытых трекеров: 
Размер: 1,46 GB (занимает 0,33 DVDR, для записи нужно 1 болванка DVDR/RW)
 
 
Похожие темы
Форум Тема Автор Торрент Отв. Посл. сооб.
Зарубежное кино [DVDRip, Low-Res HDRip, и т.д.] Мальчики и гиперпространство / Ребята Орз / Jiong nan hai / Orz Boys (Ян Я-Чжэ) [2008 г., драма, DVDRip-AVC] VO + Original + Sub makkol
10 | 0

0 | 67

1

05.11.2016 11:07


Яндекс.Метрика powered by Sphinx


В Н И М А Н И Е
Сайт не распространяет и не хранит электронные версии произведений, а лишь бесплатно и без коммерческой выгоды (не требуя взамен платы,
SMS и т.д.) предоставляет доступ к создаваемому пользователями каталогу ссылок на торрент-файлы, которые содержат только списки хеш-сумм.
Убедительная просьба с жалобами обращаться напрямую к пользователю, разместившему торрент файл.

Вверх