Loading...
Error

Тайны Мертвых. Загадка серебряного фараона / Secrets of the Dead. The Silver Pharaoh (Энди Вебб) [2010 г., документальный, история, археология, HDTVRip 720p] Dub (АРК ТВ)

Статистика раздачи
Размер:  1,31 GB   |    Зарегистрирован:  1 месяц 2 дня   |    Скачан:  2 раза

Полного источника не было: 28 дней

Сидов:  0  |  0 KB/s  ]   Личеров:  0  |  0 KB/s  ]

* - сиды/пиры с внешних источников

   
 
Автор Сообщение

ARI71 Пол:Муж

04-Ноя-2016 18:43

Тайны Мертвых. Загадка серебряного фараона / Secrets of the Dead. The Silver Pharaoh


Год выпуска: 2010
Жанр: документальный, история, археология
Страна: США , Великобритания WNET.ORG and Blink Films Productions for Thirteen
Режиссер: Энди Вебб
Сюжет фильма:
Посетите гробницу Псусеннеса I, мало известного египетского фараона, похороненного в гробу из серебра в окружении поразительных сокровищ. Это одна из величайших археологических находок всех времен. Единственная нетронутая гробница египетского фараона, чьи сокровища сравнимы с сокровищами знаменитого Тутанхамона. Эта находка может пролить свет на одну из самых мрачных эпох в истории Древнего Египта. Но возможно вы даже и не слышали о ней. сегодня эти артефакты и сокровища изучают заново и проводят повторную экспертизу останков фараона. Все наши прежние предположения могут быть отброшены, когда мы входим в гробницу серебряного фараона..


Качество видео: HDTVRip 720p

Продолжительность: 00:44:58
Формат: MKV
Видео: AVC (x264), 1280x720, 4000 kbps
Аудио: русский, дублированный [АРК ТВ], AC3 2.0, 192.00 kbps

Автор Rip'а: skorpionN

Код:

Общее
Уникальный идентификатор : 225870293994272218179728024487441435704 (0xA9ED094953628A9BB9AA57A6C0E78C38)
Полное имя : D:\PBS_Secrets of the Dead_The Silver Pharaoh_720p.mkv
Формат : Matroska
Версия формата : Version 4 / Version 2
Размер файла : 1,31 Гбайт
Продолжительность : 44 м.
Режим общего битрейта : Переменный
Общий поток : 4180 Кбит/сек
Дата кодирования : UTC 2015-04-18 16:13:42
Программа кодирования : mkvmerge v7.8.0 ('River Man') 64bit built on Mar 27 2015 16:31:37
Библиотека кодирования : libebml v1.3.1 + libmatroska v1.4.2

Видео
Идентификатор : 1
Формат : AVC
Формат/Информация : Advanced Video Codec
Профиль формата : High@L3.1
Параметр CABAC формата : Да
Параметр ReFrames формата : 3 кадра
Идентификатор кодека : V_MPEG4/ISO/AVC
Продолжительность : 44 м.
Вид битрейта : Переменный
Битрейт : 4000 Кбит/сек
Максимальный битрейт : 8000 Кбит/сек
Ширина : 1280 пикселей
Высота : 720 пикселей
Соотношение сторон : 16:9
Режим частоты кадров : Постоянный
Частота кадров : 25,000 кадров/сек
Стандарт вещания : NTSC
Цветовое пространство : YUV
Субдискретизация насыщенности : 4:2:0
Битовая глубина : 8 бит
Тип развёртки : Прогрессивная
Бит/(Пиксели*Кадры) : 0.174
Размер потока : 1,25 Гбайт (95%)
Библиотека кодирования : x264 core 114
Настройки программы : cabac=1 / ref=3 / deblock=1:0:0 / analyse=0x3:0x113 / me=hex / subme=7 / psy=1 / psy_rd=1.00:0.00 / mixed_ref=1 / me_range=16 / chroma_me=1 / trellis=1 / 8x8dct=1 / cqm=2 / deadzone=21,11 / fast_pskip=1 / chroma_qp_offset=-4 / threads=6 / sliced_threads=0 / slices=1 / nr=0 / decimate=1 / interlaced=0 / constrained_intra=0 / bframes=3 / b_pyramid=0 / b_adapt=1 / b_bias=0 / direct=1 / weightb=1 / open_gop=0 / weightp=2 / keyint=250 / keyint_min=25 / scenecut=40 / intra_refresh=0 / rc_lookahead=40 / rc=2pass / mbtree=1 / bitrate=4000 / ratetol=1.0 / qcomp=0.60 / qpmin=5 / qpmax=69 / qpstep=4 / cplxblur=20.0 / qblur=0.5 / vbv_maxrate=8000 / vbv_bufsize=7995 / nal_hrd=vbr / ip_ratio=1.40 / aq=1:1.00
Default : Да
Forced : Нет
Цветовой диапазон : Limited
Основные цвета : BT.709
Характеристики трансфера : BT.709
Коэффициенты матрицы : BT.709

Аудио
Идентификатор : 2
Формат : AC-3
Формат/Информация : Audio Coding 3
Расширение режима : CM (complete main)
Параметр Endianness формата : Big
Идентификатор кодека : A_AC3
Продолжительность : 44 м.
Вид битрейта : Постоянный
Битрейт : 192 Кбит/сек
Каналы : 2 канала
Расположение каналов : Front: L R
Частота : 48,0 КГц
Частота кадров : 31,250 кадров/сек (1536 spf)
Метод сжатия : С потерями
Размер потока : 61,8 Мбайт (5%)
Default : Да
Forced : Нет
picpicpicpicpic
Для увеличения картинки щелкните мышкой по превью

Этот торрент недоступен для скачивания без регистрации, однако доступен по публичной magnet-ссылке (источники с публичных трекеров). Перед использованием ссылки прочтите, пожалуйста Пользовательское соглашение, а также как можно дольше оставайтесь на раздаче! Для того, чтобы скачать сам торрент-файл (который видит больше источников), а также для того, чтобы поблагодарить релизера, вам необходимо зарегистрироваться. Если регистрироваться лень - вы можете также попробовать скачать релиз по нашим партнерским ссылкам ниже.

[underverse.su].t72221.torrent
Трекер: Зарегистрирован   [ 04.11.2016 18:43 ]  

Статус: проверено (by ARI71 at 04.11.2016 18:47)
Поблагодарили: пока никто не поблагодарил...
Тип торрента: публичный - доступные источники с открытых трекеров: 
Размер: 1,31 GB (занимает 0,3 DVDR, для записи нужно 1 болванка DVDR/RW)
 
 

ARI71 Пол:Муж

04-Ноя-2016 18:48

Приятного всем просмотра!

Голосуй за трекер!!




Яндекс.Метрика powered by Sphinx


В Н И М А Н И Е
Сайт не распространяет и не хранит электронные версии произведений, а лишь бесплатно и без коммерческой выгоды (не требуя взамен платы,
SMS и т.д.) предоставляет доступ к создаваемому пользователями каталогу ссылок на торрент-файлы, которые содержат только списки хеш-сумм.
Убедительная просьба с жалобами обращаться напрямую к пользователю, разместившему торрент файл.

Вверх