Loading...
Error

Норвегия: Дикая природа / Norway (Аттила Тенки) [2013 г., документальный, география, путешествие, BDRip] Dub

Статистика раздачи
Размер:  702 MB   |    Зарегистрирован:  1 месяц 3 дня   |    Скачан:  1 раз

Полного источника не было: 1 месяц 2 дня

Сидов:  0  |  0 KB/s  ]   Личеров:  0  |  0 KB/s  ]

* - сиды/пиры с внешних источников

   
 
Автор Сообщение

ARI71 Пол:Муж

04-Ноя-2016 10:53

Норвегия: Дикая природа / Norway


Год выпуска: 2013
Жанр: документальный, география, путешествие
Страна: Германия KSM
Режиссер: Аттила Тенки
Сюжет фильма:
Норвегия - древнее скандинавское государство. Эта северная страна поражает своими горными ландшафтами, вековыми ледниками и страшно красивыми фьордами - морскими заливами со скалистыми берегами. Страна, название которой переводится как "путь на север", приглашает вас прямо сейчас в удивительное по своей красоте путешествие, а технология 3D позволит вам увидеть все красоты этой древней страны в мелких деталях.


Качество видео: BDRip

Продолжительность: 01:01:51
Формат: AVI
Видео: XviD, 720x400, 1193 kbps
Аудио: русский, (дублированный), AC3 6.0, 384.00 kbps

Релиз от sheriffiks

Код:

Общее
Полное имя : D:\Норвегия 2013.BDRip.HitWay.avi
Формат : AVI
Формат/Информация : Audio Video Interleave
Размер файла : 702 Мбайт
Продолжительность : 1 ч. 1 м.
Общий поток : 1586 Кбит/сек
Программа кодирования : VirtualDubMod 1.5.10.3 | www.virtualdub-fr.org || (build 2550/release)
Библиотека кодирования : VirtualDubMod build 2550/release

Видео
Идентификатор : 0
Формат : MPEG-4 Visual
Профиль формата : Advanced Simple@L5
Параметр BVOP формата : 2
Параметр QPel формата : Нет
Параметр GMC формата : Без точки перехода
Параметр матрицы формата : Default (H.263)
Режим смешивания : Сжатый битовый поток
Идентификатор кодека : XVID
Идентификатор кодека/Подсказка : XviD
Продолжительность : 1 ч. 1 м.
Битрейт : 1193 Кбит/сек
Ширина : 720 пикселей
Высота : 400 пикселей
Соотношение сторон : 16:9
Частота кадров : 23,976 (24000/1001) кадра/сек
Цветовое пространство : YUV
Субдискретизация насыщенности : 4:2:0
Битовая глубина : 8 бит
Тип развёртки : Прогрессивная
Метод сжатия : С потерями
Бит/(Пиксели*Кадры) : 0.173
Размер потока : 528 Мбайт (75%)
Библиотека кодирования : XviD 64

Аудио
Идентификатор : 1
Формат : AC-3
Формат/Информация : Audio Coding 3
Расширение режима : CM (complete main)
Параметр Endianness формата : Big
Идентификатор кодека : 2000
Продолжительность : 1 ч. 1 м.
Вид битрейта : Постоянный
Битрейт : 384 Кбит/сек
Каналы : 6 каналов
Расположение каналов : Front: L C R, Side: L R, LFE
Частота : 48,0 КГц
Частота кадров : 31,250 кадров/сек (1536 spf)
Метод сжатия : С потерями
Размер потока : 170 Мбайт (24%)
Выравнивание : Разделение по промежуткам
Продолжительность промежутка : 42 мс. (1,00 видеокадр)
Время предзагрузки промежутка : 500 мс.
picpicpicpicpic
Для увеличения картинки щелкните мышкой по превью

Этот торрент недоступен для скачивания без регистрации, однако доступен по публичной magnet-ссылке (источники с публичных трекеров). Перед использованием ссылки прочтите, пожалуйста Пользовательское соглашение, а также как можно дольше оставайтесь на раздаче! Для того, чтобы скачать сам торрент-файл (который видит больше источников), а также для того, чтобы поблагодарить релизера, вам необходимо зарегистрироваться. Если регистрироваться лень - вы можете также попробовать скачать релиз по нашим партнерским ссылкам ниже.

[underverse.su].t72153.torrent
Трекер: Зарегистрирован   [ 04.11.2016 10:53 ]  

Статус: проверено (by ARI71 at 04.11.2016 10:57)
Поблагодарили: пока никто не поблагодарил...
Тип торрента: публичный - доступные источники с открытых трекеров: 
Размер: 702 MB (занимает 0,16 DVDR, для записи нужно 1 болванка DVDR/RW)
 
 

ARI71 Пол:Муж

04-Ноя-2016 10:56

Приятного всем просмотра!

Голосуй за трекер!!




Яндекс.Метрика powered by Sphinx


В Н И М А Н И Е
Сайт не распространяет и не хранит электронные версии произведений, а лишь бесплатно и без коммерческой выгоды (не требуя взамен платы,
SMS и т.д.) предоставляет доступ к создаваемому пользователями каталогу ссылок на торрент-файлы, которые содержат только списки хеш-сумм.
Убедительная просьба с жалобами обращаться напрямую к пользователю, разместившему торрент файл.

Вверх