Loading...
Error

Гиганты Ледникового периода / Ice Age Giants (1-3 серии из 3) / (Марк Флауэрс) [2013 г., документальный, научно-познавательный, история, HDTVRip] VO (SDI Media)

Статистика раздачи
Размер:  2,06 GB   |    Зарегистрирован:  1 месяц 3 дня   |    Скачан:  4 раза

Полного источника не было: 4 часа

Сидов:  0  |  0 KB/s  ]   Личеров:  0  |  0 KB/s  ]

* - сиды/пиры с внешних источников

   
 
Автор Сообщение

ARI71 Пол:Муж

04-Ноя-2016 07:13

Гиганты Ледникового периода / Ice Age Giants (1-3 серии из 3)


Год выпуска: 2013
Жанр: документальный, научно-познавательный, история
Страна: Великобритания BBC
Режиссер: Марк Флауэрс
Ведущая: - Элис Робертс, текст читает: - Виктория Бабанова
Сюжет фильма:
Во время последнего ледникового периода зима воцарилась на всей планете, изменив очертания континентов. Кровожадные саблезубые тигры преследовали свою добычу на обледенелых просторах Северной Америки. В Европе пещерные львы и медведи соперничали в борьбе за выживание, а косматые мамонты и носороги процветали на ледяном континенте. С началом потепления многие из них оказались под угрозой из-за таяния ледяных покровов и преследования первых людей-охотников. Профессор Элис Робертс применяет свои обширные знания и современную компьютерную анимацию, чтобы познакомить нас с исполинскими обитателями ледникового периода. Смотрите уникальный проект, который с помощью новейших технологий не только оживит существ ледниковой эры, но и покажет их образ жизни и привычки.
Благодаря чему животные смогли пережить ледниковую эру? Какое доисторическое существо было опаснейшим на планете? И как мегафауна боролось с холодом? Удивительные палеонтологические находки, сверхсовременная компьютерная графика и рискованное путешествие профессора Элис Робертс в прежних владений мамонтов и тигров позволит увидеть их жизнь изнутри!


Качество видео: HDTVRip

Продолжительность: 3 x 00:58:20
Формат: AVI
Видео: XviD, 720x400, ~1482 kbps
Аудио: русский, одноголосый закадровый [профессиональный, SDI Media], AC3 2.0, ~192.00 kbps

Автор рипа: василий 23

Код:

Общее
Полное имя : D:\BBC_Ice Age Giants_GIPERWAREZ\01_Land of the Sabre_Tooth.GIPERWAREZ.avi
Формат : AVI
Формат/Информация : Audio Video Interleave
Размер файла : 702 Мбайт
Продолжительность : 58 м.
Общий поток : 1683 Кбит/сек
Программа кодирования : VirtualDubMod 1.5.10.3 | www.virtualdub-fr.org || (build 2550/release)
Библиотека кодирования : VirtualDubMod build 2550/release

Видео
Идентификатор : 0
Формат : MPEG-4 Visual
Профиль формата : Advanced Simple@L5
Параметр BVOP формата : 1
Параметр QPel формата : Нет
Параметр GMC формата : Без точки перехода
Параметр матрицы формата : Default (MPEG)
Идентификатор кодека : XVID
Идентификатор кодека/Подсказка : XviD
Продолжительность : 58 м.
Битрейт : 1482 Кбит/сек
Ширина : 720 пикселей
Высота : 400 пикселей
Соотношение сторон : 16:9
Частота кадров : 25,000 кадров/сек
Цветовое пространство : YUV
Субдискретизация насыщенности : 4:2:0
Битовая глубина : 8 бит
Тип развёртки : Прогрессивная
Метод сжатия : С потерями
Бит/(Пиксели*Кадры) : 0.206
Размер потока : 618 Мбайт (88%)
Библиотека кодирования : XviD 1.2.1 (UTC 2008-12-04)

Аудио
Идентификатор : 1
Формат : AC-3
Формат/Информация : Audio Coding 3
Расширение режима : CM (complete main)
Параметр Endianness формата : Big
Идентификатор кодека : 2000
Продолжительность : 58 м.
Вид битрейта : Постоянный
Битрейт : 192 Кбит/сек
Каналы : 2 канала
Расположение каналов : Front: L R
Частота : 48,0 КГц
Частота кадров : 31,250 кадров/сек (1536 spf)
Метод сжатия : С потерями
Размер потока : 80,1 Мбайт (11%)
Выравнивание : Разделение по промежуткам
Продолжительность промежутка : 40 мс. (1,00 видеокадр)
Время предзагрузки промежутка : 500 мс.
01. Край саблезубых тигров / Land of the Sabre-Tooth
Тысячи лет назад Северную Америку покрывала трехкилометровая толща льда, а населявшие ее гигантские мамонты и огромные косматые носороги становились добычей стай свирепых саблезубых кошек.

02. Край пещерных медведей / Land of the Cave-Bear
Профессор Элис Робертс едет в Европу и обнаруживает пещеру с останками доисторических льва и медведя. В тундростепи сохранились следы первых охотников-неандертальцев.

03. Последний из гигантов / Last of the Giants
В заключительной серии профессор Робертс исследует потепление на планете, приведшее к вымиранию большинства гигантов ледникового периода. Мы также узнаем трогательную историю мастодонта.
picpicpicpicpic
Для увеличения картинки щелкните мышкой по превью

Этот торрент недоступен для скачивания без регистрации, однако доступен по публичной magnet-ссылке (источники с публичных трекеров). Перед использованием ссылки прочтите, пожалуйста Пользовательское соглашение, а также как можно дольше оставайтесь на раздаче! Для того, чтобы скачать сам торрент-файл (который видит больше источников), а также для того, чтобы поблагодарить релизера, вам необходимо зарегистрироваться. Если регистрироваться лень - вы можете также попробовать скачать релиз по нашим партнерским ссылкам ниже.

[underverse.su].t72109.torrent
Трекер: Зарегистрирован   [ 04.11.2016 07:13 ]  

Статус: проверено (by ARI71 at 04.11.2016 07:19)
Поблагодарили: 1 человек
Тип торрента: публичный - доступные источники с открытых трекеров: 
Размер: 2,06 GB (занимает 0,47 DVDR, для записи нужно 1 болванка DVDR/RW)
 
 
Похожие темы
Форум Тема Автор Торрент Отв. Посл. сооб.
BBC Гиганты ледникового периода / Ice Age Giants (1-3 серии из 3) / (Марк Флауэрс) [2013 г., документальный, научно-познавательный, HDTVRip 720p] VO (SDI Media) + Original (Eng) + Sub (Eng) ARI71
2 | 0

2 | 953

2

26.10.2016 15:18

ARI71 Пол:Муж

04-Ноя-2016 07:14

Приятного всем просмотра!

Голосуй за трекер!!




Яндекс.Метрика powered by Sphinx


В Н И М А Н И Е
Сайт не распространяет и не хранит электронные версии произведений, а лишь бесплатно и без коммерческой выгоды (не требуя взамен платы,
SMS и т.д.) предоставляет доступ к создаваемому пользователями каталогу ссылок на торрент-файлы, которые содержат только списки хеш-сумм.
Убедительная просьба с жалобами обращаться напрямую к пользователю, разместившему торрент файл.

Вверх