Loading...
Error

Держи удар, детка (Ара Оганесян) [2016 г., комедия, мелодрама, WEB-DLRip] RUS (iTunes)

Статистика раздачи
Размер:  1,37 GB   |    Зарегистрирован:  1 месяц 5 дней   |    Скачан:  14 раз
Сидов:  1  |  0 KB/s  ]   Личеров:  0  |  0 KB/s  ]

* - сиды/пиры с внешних источников

   
 
Автор Сообщение

makkol Пол:Муж

03-Ноя-2016 21:19

Держи удар, детка


Год выпуска: 2016
Жанр: комедия, мелодрама
Производство: Россия [Level Films]
Режиссер: Ара Оганесян
В ролях: Екатерина Владимирова, Михаил Пореченков, Игорь Верник, Ольга Бузова, Настасья Самбурская, Даниил Вахрушев, Виктор Хориняк, Теймураз Тания, Анна Цуканова, Виталий Гогунский
Сюжет фильма:
Близняшек Свету и Таню внешне отличить не может никто, но на этом их сходство заканчивается. Света - это женственность и стервозность. Она хочет построить карьеру на телевидении. Таня готовится попасть в сборную России по боксу. Тайсон в юбке. Ее жизнь - это тренировки и спортивный режим. Таня получает травму. Таня уговаривает сестру поменяться местами, чтобы пройти за нее медкомиссию и ходить на тренировки. Света готова на это с условием, что Таня пройдет за нее практику на телеканале. Свете предстоит поменять свой характер, чтобы довести сестру до боя. Тане - подумать мозгами, а не кулаками, чтобы стать Светой.

  • Российская премьера: 6 октября 2016


Качество видео: WEB-DLRip

Продолжительность: 01:41:18
Формат: AVI
Видео: XviD, 720x304 (2.35:1), 25.000 fps, 1538 kbps
Аудио: русский, оригинал (iTunes), AC3 2.0, 48 kHz, 384 kbps

Код:

Формат                                   : AVI
Формат/Информация                        : Audio Video Interleave
Размер файла                             : 1,37 Гбайт
Продолжительность                        : 1 ч. 41 м.
Общий поток                              : 1932 Кбит/сек
Программа кодирования                    : VirtualDubMod 1.5.10.2 (build 2540/release)
Библиотека кодирования                   : VirtualDubMod build 2540/release

Видео
Идентификатор                            : 0
Формат                                   : MPEG-4 Visual
Профиль формата                          : Advanced Simple@L5
Параметр BVOP формата                    : 2
Параметр QPel формата                    : Нет
Параметр GMC формата                     : Без точки перехода
Параметр матрицы формата                 : Default (MPEG)
Идентификатор кодека                     : XVID
Идентификатор кодека/Подсказка           : XviD
Продолжительность                        : 1 ч. 41 м.
Битрейт                                  : 1538 Кбит/сек
Ширина                                   : 720 пикселей
Высота                                   : 304 пикселя
Соотношение сторон                       : 2,35:1
Частота кадров                           : 25,000 кадров/сек
Цветовое пространство                    : YUV
Субдискретизация насыщенности            : 4:2:0
Битовая глубина                          : 8 бит
Тип развёртки                            : Прогрессивная
Метод сжатия                             : С потерями
Бит/(Пиксели*Кадры)                      : 0.281
Размер потока                            : 1,09 Гбайт (80%)
Библиотека кодирования                   : XviD 1.2.1 (UTC 2008-12-04)

Аудио
Идентификатор                            : 1
Формат                                   : AC-3
Формат/Информация                        : Audio Coding 3
Расширение режима                        : CM (complete main)
Параметр Endianness формата              : Big
Идентификатор кодека                     : 2000
Продолжительность                        : 1 ч. 41 м.
Вид битрейта                             : Постоянный
Битрейт                                  : 384 Кбит/сек
Каналы                                   : 2 канала
Расположение каналов                     : Front: L R
Частота                                  : 48,0 КГц
Частота кадров                           : 31,250 кадров/сек (1536 spf)
Метод сжатия                             : С потерями
Размер потока                            : 278 Мбайт (20%)
Выравнивание                             : Разделение по промежуткам
Продолжительность промежутка             : 40  мс. (1,00 видеокадр)
Время предзагрузки промежутка            : 500  мс.


picpicpicpicpic
Для увеличения картинки щелкните мышкой по превью

Этот торрент недоступен для скачивания без регистрации, однако доступен по публичной magnet-ссылке (источники с публичных трекеров). Перед использованием ссылки прочтите, пожалуйста Пользовательское соглашение, а также как можно дольше оставайтесь на раздаче! Для того, чтобы скачать сам торрент-файл (который видит больше источников), а также для того, чтобы поблагодарить релизера, вам необходимо зарегистрироваться. Если регистрироваться лень - вы можете также попробовать скачать релиз по нашим партнерским ссылкам ниже.

[underverse.su].t72071.torrent
Трекер: Зарегистрирован   [ 03.11.2016 21:19 ]  

Статус: © запрещена на территории РФ (by Паукан at 07.12.2016 13:53)
Поблагодарили: пока никто не поблагодарил...
Тип торрента: публичный - доступные источники с открытых трекеров: 
Размер: 1,37 GB (занимает 0,31 DVDR, для записи нужно 1 болванка DVDR/RW)
 
 
Похожие темы
Форум Тема Автор Торрент Отв. Посл. сооб.
© Наше кино [DVDRip, Low-Res HDRip, и т.д.] Держи удар, детка (Ара Оганесян) [2016 г., комедия, мелодрама, WEB-DLRip] Original (iTunes) 90ytr90
231 | 4

0 | 195

12

04.11.2016 03:20

© Наше кино [DVDRip, Low-Res HDRip, и т.д.] Держи удар, детка (Ара Оганесян) [2016 г., комедия, мелодрама, WEB-DLRip-AVC] Original (iTunes) 90ytr90
233 | 5

0 | 141

10

09.11.2016 06:51

© Наше кино [HDDVDRip / BDRip / WEB-DL / HDTV 1080/720р] Держи удар, детка (Ара Оганесян) [2016 г., комедия, мелодрама, WEB-DL 1080p] RUS (iTunes) makkol
659 | 10

0 | 202

16

03.11.2016 21:30

© Наше кино [HDDVDRip / BDRip / WEB-DL / HDTV 1080/720р] Держи удар, детка (Ара Оганесян) [2016 г., комедия, мелодрама, WEB-DL 720p] RUS (iTunes) makkol
220 | 4

0 | 172

7

03.11.2016 21:25

© Новинки кино [CAMRip, TS, DVDScr, WP, TC] Держи удар, детка (Ара Оганесян) [2016 г., комедия, мелодрама, CAMRip] makkol
26 | 0

0 | 317

26

12.10.2016 22:15


Яндекс.Метрика powered by Sphinx


В Н И М А Н И Е
Сайт не распространяет и не хранит электронные версии произведений, а лишь бесплатно и без коммерческой выгоды (не требуя взамен платы,
SMS и т.д.) предоставляет доступ к создаваемому пользователями каталогу ссылок на торрент-файлы, которые содержат только списки хеш-сумм.
Убедительная просьба с жалобами обращаться напрямую к пользователю, разместившему торрент файл.

Вверх