Loading...
Error

Сети истории. Галилео Галилей / Storia in Rete. Galileo Galilei (Александра Джиганте) [2009 г., документальный, постановочный, история, архитектура, SatRip] DVO (Игмар)

Статистика раздачи
Размер:  947 MB   |    Зарегистрирован:  29 дней   |    Скачан:  1 раз

Полного источника не было: 26 дней

Сидов:  0  |  0 KB/s  ]   Личеров:  0  |  0 KB/s  ]

* - сиды/пиры с внешних источников

   
 
Автор Сообщение

ARI71 Пол:Муж

03-Ноя-2016 13:46

Сети истории. Галилео Галилей / Storia in Rete. Galileo Galilei


Год выпуска: 2009
Жанр: документальный, постановочный, история, архитектура
Страна: Италия Storia in Rete
Режиссер: Александра Джиганте
Сюжет фильма:
Почему в конце эпохи Возрождения так важно было определить: вращается ли Земля вокруг Солнца или нет? Только ли Церковь выступала против этой теории Коперника? И какую роль играл во всем этом Галилео Галилей, выступавший против католических богословов? Что это был за человек? Чего он добивался?

Галиле́о Галиле́й (итал. Galileo Galilei; 15 февраля 1564, Пиза — 8 января 1642, Арчетри) — итальянский физик, механик, астроном, философ и математик, оказавший значительное влияние на науку своего времени. Он первым использовал телескоп для наблюдения небесных тел и сделал ряд выдающихся астрономических открытий. Галилей — основатель экспериментальной физики. Своими экспериментами он убедительно опроверг умозрительную метафизику Аристотеля и заложил фундамент классической механики.

При жизни был известен как активный сторонник гелиоцентрической системы мира, что привело Галилея к серьёзному конфликту с католической церковью.


Качество видео: SatRip

Продолжительность: 01:06:06
Формат: AVI
Видео: XviD, 720x400, 1800 kbps
Аудио: русский, двухголосый закадровый [профессиональный, Игмар], AC3 2.0, 192.00 kbps

Автор рипа: skorpionN

Код:

Общее
Полное имя : D:\Galileo_Galilei.avi
Формат : AVI
Формат/Информация : Audio Video Interleave
Размер файла : 947 Мбайт
Продолжительность : 1 ч. 6 м.
Общий поток : 2002 Кбит/сек
Программа кодирования : VirtualDubMod 1.5.10.3 | www.virtualdub-fr.org || (build 2550/release)
Библиотека кодирования : VirtualDubMod build 2550/release

Видео
Идентификатор : 0
Формат : MPEG-4 Visual
Профиль формата : Advanced Simple@L5
Параметр BVOP формата : 2
Параметр QPel формата : Нет
Параметр GMC формата : Без точки перехода
Параметр матрицы формата : Default (H.263)
Идентификатор кодека : XVID
Идентификатор кодека/Подсказка : XviD
Продолжительность : 1 ч. 6 м.
Битрейт : 1800 Кбит/сек
Ширина : 720 пикселей
Высота : 400 пикселей
Соотношение сторон : 16:9
Частота кадров : 25,000 кадров/сек
Цветовое пространство : YUV
Субдискретизация насыщенности : 4:2:0
Битовая глубина : 8 бит
Тип развёртки : Прогрессивная
Метод сжатия : С потерями
Бит/(Пиксели*Кадры) : 0.250
Размер потока : 851 Мбайт (90%)
Библиотека кодирования : XviD 1.2.1 (UTC 2008-12-04)

Аудио
Идентификатор : 1
Формат : AC-3
Формат/Информация : Audio Coding 3
Расширение режима : CM (complete main)
Параметр Endianness формата : Big
Идентификатор кодека : 2000
Продолжительность : 1 ч. 6 м.
Вид битрейта : Постоянный
Битрейт : 192 Кбит/сек
Каналы : 2 канала
Расположение каналов : Front: L R
Частота : 48,0 КГц
Частота кадров : 31,250 кадров/сек (1536 spf)
Метод сжатия : С потерями
Размер потока : 90,8 Мбайт (10%)
Выравнивание : Разделение по промежуткам
Продолжительность промежутка : 40 мс. (1,00 видеокадр)
Время предзагрузки промежутка : 500 мс.
picpicpicpicpic
Для увеличения картинки щелкните мышкой по превью

Этот торрент недоступен для скачивания без регистрации, однако доступен по публичной magnet-ссылке (источники с публичных трекеров). Перед использованием ссылки прочтите, пожалуйста Пользовательское соглашение, а также как можно дольше оставайтесь на раздаче! Для того, чтобы скачать сам торрент-файл (который видит больше источников), а также для того, чтобы поблагодарить релизера, вам необходимо зарегистрироваться. Если регистрироваться лень - вы можете также попробовать скачать релиз по нашим партнерским ссылкам ниже.

[underverse.su].t72007.torrent
Трекер: Зарегистрирован   [ 03.11.2016 13:46 ]  

Статус: проверено (by ARI71 at 03.11.2016 13:50)
Поблагодарили: пока никто не поблагодарил...
Тип торрента: публичный - доступные источники с открытых трекеров: 
Размер: 947 MB (занимает 0,21 DVDR, для записи нужно 1 болванка DVDR/RW)
 
 
Похожие темы
Форум Тема Автор Торрент Отв. Посл. сооб.
Исторические фильмы Сети истории. Анна Мария Луиза Медичи-последняя из Медичи / Storia in Rete. L’ultima del Medici: l’Elettrice Palatina (Александра Джиганте) [2011 г., документальный, постановочный, история, SatRip]... ARI71
2 | 1

1 | 386

0

25.11.2016 07:02

Исторические фильмы Сети истории. Джироламо Савонарола / Storia in Rete. Le visioni di Savonarola (Александра Джиганте) [2011 г., документальный, постановочный, история, SatRip] DVO (Игмар) ARI71
4 | 0

0 | 380

2

17.11.2016 18:48

Исторические фильмы Сети истории. Правдивая история о Караваджо / Storia in Rete. La vera storia di Caravaggio (Александра Джиганте, Фабио Андриола) [2013 г., документальный, постановочный, история, архитектура, SatRip]... ARI71
8 | 0

1 | 528

2

29.10.2016 09:36

Исторические фильмы Сети истории. Правдивая история о Ромео и Джульетте / Storia in Rete. La vera storia di Romeo e Giulietta (Александра Джиганте) [2011 г., документальный, постановочный, история, архитектура, SatRip]... ARI71
2 | 0

1 | 457

2

20.10.2016 18:49

Исторические фильмы Сети истории. Изабелла д'Эсте – Примадонна Возрождения / Storia in Rete. Isabella d'Este - La Signora del Rinascimento (Александра Джиганте) [2011 г., документальный, история, архитектура, SatRip]... ARI71
0 | 1

1 | 272

0

14.10.2016 11:31

Исторические фильмы Сети истории. Правдивая история Никколо Макиавелли / Storia in Rete. Niccolo Machiavelli (Александра Джиганте) [2011 г., документальный, постановочный, история, архитектура, исследования, SatRip] VO... ARI71
6 | 0

1 | 649

3

07.10.2016 10:36

ARI71 Пол:Муж

03-Ноя-2016 13:49

Приятного всем просмотра!

Голосуй за трекер!!




Яндекс.Метрика powered by Sphinx


В Н И М А Н И Е
Сайт не распространяет и не хранит электронные версии произведений, а лишь бесплатно и без коммерческой выгоды (не требуя взамен платы,
SMS и т.д.) предоставляет доступ к создаваемому пользователями каталогу ссылок на торрент-файлы, которые содержат только списки хеш-сумм.
Убедительная просьба с жалобами обращаться напрямую к пользователю, разместившему торрент файл.

Вверх