Loading...
Error

Предательство / Betrayed (1-10 серий из 10) / (Йорам Астрахан) [2016 г., документальный, постановочный, расследования, криминал, SatRip] DVO (Велес)

Статистика раздачи
Размер:  5,37 GB   |    Зарегистрирован:  15 дней   |    Скачан:  0 раз

Полного источника не было: 12 дней

Сидов:  0  |  0 KB/s  ]   Личеров:  0  |  0 KB/s  ]

* - сиды/пиры с внешних источников

   
 
Автор Сообщение

ARI71 Пол:Муж

03-Ноя-2016 11:53

Предательство / Betrayed (1-10 серий из 10)


Год выпуска: 2016
Жанр: документальный, постановочный, расследования, криминал
Страна: США Discovery Communications LLC
Режиссер: Йорам Астрахан
Сюжет фильма:
У веселой матери-одиночки Даны есть парень, ревнивый бывший муж и тайный любовник. Кто из них виноват в ее преждевременной смерти?
Качество видео: SatRip

Продолжительность: 10 x ~ 00:44:00
Формат: AVI
Видео: XviD, 704x384, ~1546 kbps
Аудио: русский, двухголосый [профессиональный, Велес], AC3 2.0, ~192.00 kbps
(тех. данные всех серий идентичны)

Код:

Общее
Полное имя : D:\Predatelstvo.XviD.2016.SATRip.Generalfilm\001.avi
Формат : AVI
Формат/Информация : Audio Video Interleave
Размер файла : 550 Мбайт
Продолжительность : 44 м.
Общий поток : 1748 Кбит/сек
Программа кодирования : VirtualDubMod 1.5.10.3 | www.virtualdub-fr.org || (build 2550/release)
Библиотека кодирования : VirtualDubMod build 2550/release

Видео
Идентификатор : 0
Формат : MPEG-4 Visual
Профиль формата : Advanced Simple@L5
Параметр BVOP формата : 1
Параметр QPel формата : Нет
Параметр GMC формата : Без точки перехода
Параметр матрицы формата : Default (MPEG)
Идентификатор кодека : XVID
Идентификатор кодека/Подсказка : XviD
Продолжительность : 44 м.
Битрейт : 1546 Кбит/сек
Ширина : 704 пикселя
Высота : 384 пикселя
Соотношение сторон : 1,85:1
Частота кадров : 25,000 кадров/сек
Цветовое пространство : YUV
Субдискретизация насыщенности : 4:2:0
Битовая глубина : 8 бит
Тип развёртки : Прогрессивная
Метод сжатия : С потерями
Бит/(Пиксели*Кадры) : 0.229
Размер потока : 487 Мбайт (88%)
Библиотека кодирования : XviD 64

Аудио
Идентификатор : 1
Формат : AC-3
Формат/Информация : Audio Coding 3
Расширение режима : CM (complete main)
Параметр Endianness формата : Big
Идентификатор кодека : 2000
Продолжительность : 44 м.
Вид битрейта : Постоянный
Битрейт : 192 Кбит/сек
Каналы : 2 канала
Расположение каналов : Front: L R
Частота : 48,0 КГц
Частота кадров : 31,250 кадров/сек (1536 spf)
Метод сжатия : С потерями
Размер потока : 60,5 Мбайт (11%)
Выравнивание : Разделение по промежуткам
Продолжительность промежутка : 40 мс. (1,00 видеокадр)
Время предзагрузки промежутка : 500 мс.
01. Удавка любви
02. Некуда бежать
03. Танцы с мертвецами
04. Кабельщик
05. Дурная кровь
06. Ослепленный предательством
07. Продавец
08. Нокаут
09. Флирт со смертью
10. Роковая семья
picpicpicpicpic
Для увеличения картинки щелкните мышкой по превью

Этот торрент недоступен для скачивания без регистрации, однако доступен по публичной magnet-ссылке (источники с публичных трекеров). Перед использованием ссылки прочтите, пожалуйста Пользовательское соглашение, а также как можно дольше оставайтесь на раздаче! Для того, чтобы скачать сам торрент-файл (который видит больше источников), а также для того, чтобы поблагодарить релизера, вам необходимо зарегистрироваться. Если регистрироваться лень - вы можете также попробовать скачать релиз по нашим партнерским ссылкам ниже.

[underverse.su].t74329.torrent
Трекер: Зарегистрирован   [ 24.11.2016 14:48 ]  

Статус: проверено (by ARI71 at 24.11.2016 14:49)
Поблагодарили: пока никто не поблагодарил...
Тип торрента: публичный - доступные источники с открытых трекеров: 
Размер: 5,37 GB (занимает 1,23 DVDR, для записи нужно 2 болванки DVDR/RW)
 
 
Похожие темы
Форум Тема Автор Торрент Отв. Посл. сооб.
Зарубежное кино [DVDRip, Low-Res HDRip, и т.д.] Предательство голубки / Betrayal of the Dove (Стрэтфорд Хэмильтон / Strathford Hamilton) [1993 г., триллер, криминал, DVDRip] MVO 90ytr90
0 | 0

0 | 405

2

11.03.2014 10:59

Зарубежное кино [DVDRip, Low-Res HDRip, и т.д.] Предательство / Bloedlink (Йорам Люрсен) [2014 г., триллер, DVDRip] DVO 90ytr90
0 | 1

0 | 477

9

28.02.2015 09:42

Старые игры для PC Предательство в Антаре / Betrayal in Antara [1997 г., RPG] RUS kotiar
0 | 0

2 | 2191

9

06.03.2012 13:23



Последний раз редактировалось: ARI71 (24.11.2016 14:48), всего редактировалось 3 раз(а)

ARI71 Пол:Муж

10-Ноя-2016 11:28

Добавлена заключительная 10-я серия! Обновите торрент-файл!

    Обновление раздачи завершено!

Яндекс.Метрика powered by Sphinx


В Н И М А Н И Е
Сайт не распространяет и не хранит электронные версии произведений, а лишь бесплатно и без коммерческой выгоды (не требуя взамен платы,
SMS и т.д.) предоставляет доступ к создаваемому пользователями каталогу ссылок на торрент-файлы, которые содержат только списки хеш-сумм.
Убедительная просьба с жалобами обращаться напрямую к пользователю, разместившему торрент файл.

Вверх