Loading...
Error

Кельты: Кровью и железом, с Элис Робертс и Нилом Оливером / The Celts: Blood, Iron and Sacrifice with Alice Roberts and Neil Oliver (3 серии из 3) [2015 г., документальный, археология, история, древние народы, SatRip] VO + Original (Eng)

Статистика раздачи
Размер:  2,6 GB   |    Зарегистрирован:  27 дней   |    Скачан:  3 раза
Сидов:  1  |  0 KB/s  ]   Личеров:  0  |  0 KB/s  ]

* - сиды/пиры с внешних источников

   
 
Автор Сообщение

ARI71 Пол:Муж

03-Ноя-2016 10:22

Кельты: Кровью и железом, с Элис Робертс и Нилом Оливером / The Celts: Blood, Iron and Sacrifice with Alice Roberts and Neil Oliver (3 серии из 3)


Год выпуска: 2015
Жанр: документальный, археология, история, древние народы
Страна: Великобритания BBC History Production London
Ведущие: Элис Робертс, Нил Оливер
Сюжет фильма:
Когда-то владения кельтов простирались от Испании, Англии и Франции до Словении и Анатолии. Благодаря новым археологическим находкам мы можем составить более точный портрет кельтов. На протяжении почти тысячи лет они определяли историю Европы и заставляли Рим постоянно быть начеку. В первом веке до нашей эры Европа принадлежала кельтам, и Цезарь направил свои войска на Галлию, чтобы завоевать все кельтские племена. Но кельт Верцингеторикс объединил их и выступил против римлян в войне, которая длилась 7 лет. Это и прочие противостояния, вроде восстания под началом королевы Боудикки, показывают нам непримиримость кельтов и римлян, которая до сих пор влияет на наш мир, и то, каким был один из самых загадочных древних народов Европы.
Антрополог Элис Робертс и археолог Нил Оливер отправляются на поиски Кельтов - одного из самых загадочных народов древности. В Британии и Ирландии кельтское наследие можно встретить повсеместно, но в этом документальном фильме Нил и Элис отправятся далеко за пределы туманного Альбиона и расскажут о происхождении и верованиях кельтского народа, жившего в Железном Веке, чьи артефакты и останки раскиданы по всей Европе - от Турции до Португалии. Да ещё и с впечатляющими реконструкциями образа жизни кельтов.


Качество видео: SatRip

Продолжительность: 3 x ~00:57:20
Формат: AVI
Видео: XviD, 704x400, 1792 kbps
Аудио #1: русский, одноголосый [профессиональный], AC3 2.0, 192.00 kbps
Аудио #2: английский, [оригинал], AC3 2.0, 192.00 kbps

Автор рипа: skorpionN

Код:

Общее
Полное имя : D:\The Celts Blood_Iron_and Sacrifice\part_01.avi
Формат : AVI
Формат/Информация : Audio Video Interleave
Размер файла : 899 Мбайт
Продолжительность : 57 м.
Общий поток : 2191 Кбит/сек
Программа кодирования : VirtualDubMod 1.5.10.3 | www.virtualdub-fr.org || (build 2550/release)
Библиотека кодирования : VirtualDubMod build 2550/release

Видео
Идентификатор : 0
Формат : MPEG-4 Visual
Профиль формата : Advanced Simple@L5
Параметр BVOP формата : 2
Параметр QPel формата : Нет
Параметр GMC формата : Без точки перехода
Параметр матрицы формата : Default (H.263)
Режим смешивания : Сжатый битовый поток
Идентификатор кодека : XVID
Идентификатор кодека/Подсказка : XviD
Продолжительность : 57 м.
Битрейт : 1792 Кбит/сек
Ширина : 704 пикселя
Высота : 400 пикселей
Соотношение сторон : 16:9
Частота кадров : 25,000 кадров/сек
Цветовое пространство : YUV
Субдискретизация насыщенности : 4:2:0
Битовая глубина : 8 бит
Тип развёртки : Прогрессивная
Метод сжатия : С потерями
Бит/(Пиксели*Кадры) : 0.255
Размер потока : 736 Мбайт (82%)
Библиотека кодирования : XviD 73

Аудио #1
Идентификатор : 1
Формат : AC-3
Формат/Информация : Audio Coding 3
Расширение режима : CM (complete main)
Параметр Endianness формата : Big
Идентификатор кодека : 2000
Продолжительность : 57 м.
Вид битрейта : Постоянный
Битрейт : 192 Кбит/сек
Каналы : 2 канала
Расположение каналов : Front: L R
Частота : 48,0 КГц
Частота кадров : 31,250 кадров/сек (1536 spf)
Метод сжатия : С потерями
Размер потока : 78,8 Мбайт (9%)
Выравнивание : Соединение по промежуткам
Продолжительность промежутка : 40 мс. (1,00 видеокадр)
Время предзагрузки промежутка : 512 мс.

Аудио #2
Идентификатор : 2
Формат : AC-3
Формат/Информация : Audio Coding 3
Расширение режима : CM (complete main)
Параметр Endianness формата : Big
Идентификатор кодека : 2000
Продолжительность : 57 м.
Вид битрейта : Постоянный
Битрейт : 192 Кбит/сек
Каналы : 2 канала
Расположение каналов : Front: L R
Частота : 48,0 КГц
Частота кадров : 31,250 кадров/сек (1536 spf)
Метод сжатия : С потерями
Размер потока : 78,8 Мбайт (9%)
Выравнивание : Разделение по промежуткам
Продолжительность промежутка : 40 мс. (1,00 видеокадр)
Время предзагрузки промежутка : 500 мс.
01. Вы увидите истоки кельтского народа в Центральных Альпах и станете свидетелями первого сражения на севере Рима, которое надолго запомнится империи.

02. Как удалось воину-галлу Верцингеториксу в первом веке до нашей эры объединить кельтов для противостояния Юлию Цезарю, ради битвы, которая сформировала будущую Европу?

03. В этой серии вы узнаете, как римская армия решила завоевать Британию - остров, полный ресурсов, сильных племён с развитым военным ремеслом - родину королевы Боудикки.
picpicpicpicpic
Для увеличения картинки щелкните мышкой по превью

Этот торрент недоступен для скачивания без регистрации, однако доступен по публичной magnet-ссылке (источники с публичных трекеров). Перед использованием ссылки прочтите, пожалуйста Пользовательское соглашение, а также как можно дольше оставайтесь на раздаче! Для того, чтобы скачать сам торрент-файл (который видит больше источников), а также для того, чтобы поблагодарить релизера, вам необходимо зарегистрироваться. Если регистрироваться лень - вы можете также попробовать скачать релиз по нашим партнерским ссылкам ниже.

[underverse.su].t73146.torrent
Трекер: Зарегистрирован   [ 10.11.2016 14:35 ]  

Статус: проверено (by ARI71 at 10.11.2016 14:38)
Поблагодарили: 1 человек
Тип торрента: публичный - доступные источники с открытых трекеров: 
Размер: 2,6 GB (занимает 0,6 DVDR, для записи нужно 1 болванка DVDR/RW)
 
 
Похожие темы
Форум Тема Автор Торрент Отв. Посл. сооб.
BBC Кельты: Кровью и железом, с Элис Робертс и Нилом Оливером / The Celts: Blood, Iron and Sacrifice with Alice Roberts and Neil Oliver (3 серии из 3) / (Джереми Халл) [2015 г., документальный,... ARI71
3 | 0

1 | 276

3

12.11.2016 11:43



Последний раз редактировалось: ARI71 (10.11.2016 14:35), всего редактировалось 1 раз

ARI71 Пол:Муж

03-Ноя-2016 10:27

Приятного всем просмотра!

Голосуй за трекер!!



ARI71 Пол:Муж

10-Ноя-2016 14:32

Добавлена заключительная 3-я серия!

    Обновление раздачи завершено!

Яндекс.Метрика powered by Sphinx


В Н И М А Н И Е
Сайт не распространяет и не хранит электронные версии произведений, а лишь бесплатно и без коммерческой выгоды (не требуя взамен платы,
SMS и т.д.) предоставляет доступ к создаваемому пользователями каталогу ссылок на торрент-файлы, которые содержат только списки хеш-сумм.
Убедительная просьба с жалобами обращаться напрямую к пользователю, разместившему торрент файл.

Вверх