Loading...
Error

Артист забытого жанра. Владимир Шубарин (Ольга Ольгина) [2007 г., документальный, биография, эстрада, культура, SatRip]

Статистика раздачи
Размер:  500 MB   |    Зарегистрирован:  1 месяц 6 дней   |    Скачан:  0 раз

Полного источника не было: 1 месяц 5 дней

Сидов:  0  |  0 KB/s  ]   Личеров:  0  |  0 KB/s  ]

* - сиды/пиры с внешних источников

   
 
Автор Сообщение

ARI71 Пол:Муж

02-Ноя-2016 14:30

Артист забытого жанра. Владимир Шубарин


Год выпуска: 2007
Жанр: документальный, биография, эстрада, культура
Страна: Россия ВГТРК
Режиссер: Ольга Ольгина
В ролях: Александр Панкратов-Чёрный, Вячеслав Полунин, Владимир Шубарин, Алла Сигалова
Сюжет фильма:
Его называли человек-пружина, летающий мальчик, и никак не могли придумать название жанра, в котором работал Владимир Шубарин - оригинальный танец, эстрадный, джазовый. Популярность его в 60-70-е годы была фантастической, любовь зрителей - огромной, а судьба на эстраде складывалась трудно. Это танцевал он с необыкновенной легкостью, прыгал высоко, летал по сцене, вертелся юлой, виртуозно бил чечетку, а вот завоевывал право быть единственным в стране джазовым танцором действительно трудно.

Влади́мир Алекса́ндрович Шуба́рин (23 декабря 1934 — 16 апреля 2002) — советский эстрадный танцовщик и певец 1960—1980-х годов, Заслуженный артист РСФСР (1960).
Качество видео: SatRip

Продолжительность: 00:46:00
Формат: AVI
Видео: XviD, 704x528, 1385 kbps
Аудио: русский, (оригинал), MP3 2.0, 128.00 kbps
Субтитры: тип: вшитые (неотключаемые), русский

Релиз от: kosta52

Код:

Общее
Полное имя : D:\Artist.zabytogo.zhanra.Vladimir.Shubarin.2007.XviD.TVRip.*другой трекер*.avi
Формат : AVI
Формат/Информация : Audio Video Interleave
Размер файла : 500 Мбайт
Продолжительность : 46 м.
Общий поток : 1521 Кбит/сек
Программа кодирования : VirtualDubMod 1.5.10.2 (build 2540/release)
Библиотека кодирования : VirtualDubMod build 2540/release

Видео
Идентификатор : 0
Формат : MPEG-4 Visual
Профиль формата : Advanced Simple@L5
Параметр BVOP формата : 1
Параметр QPel формата : Нет
Параметр GMC формата : Без точки перехода
Параметр матрицы формата : Default (MPEG)
Идентификатор кодека : XVID
Идентификатор кодека/Подсказка : XviD
Продолжительность : 46 м.
Битрейт : 1385 Кбит/сек
Ширина : 704 пикселя
Высота : 528 пикселей
Соотношение сторон : 4:3
Частота кадров : 20,000 кадров/сек
Цветовое пространство : YUV
Субдискретизация насыщенности : 4:2:0
Битовая глубина : 8 бит
Тип развёртки : Прогрессивная
Метод сжатия : С потерями
Бит/(Пиксели*Кадры) : 0.186
Размер потока : 456 Мбайт (91%)
Библиотека кодирования : XviD 1.2.1 (UTC 2008-12-04)

Аудио
Идентификатор : 1
Формат : MPEG Audio
Версия формата : Version 1
Профиль формата : Layer 3
Идентификатор кодека : 55
Идентификатор кодека/Подсказка : MP3
Продолжительность : 46 м.
Вид битрейта : Постоянный
Битрейт : 128 Кбит/сек
Каналы : 2 канала
Частота : 48,0 КГц
Метод сжатия : С потерями
Размер потока : 42,1 Мбайт (8%)
Выравнивание : Соединение по промежуткам
Продолжительность промежутка : 50 мс. (1,00 видеокадр)
Время предзагрузки промежутка : 504 мс.
Библиотека кодирования : LAME3.98r
Настройки программы : -m s -V 4 -q 2 -lowpass 17 -b 128
picpicpicpicpic
Для увеличения картинки щелкните мышкой по превью

Этот торрент недоступен для скачивания без регистрации, однако доступен по публичной magnet-ссылке (источники с публичных трекеров). Перед использованием ссылки прочтите, пожалуйста Пользовательское соглашение, а также как можно дольше оставайтесь на раздаче! Для того, чтобы скачать сам торрент-файл (который видит больше источников), а также для того, чтобы поблагодарить релизера, вам необходимо зарегистрироваться. Если регистрироваться лень - вы можете также попробовать скачать релиз по нашим партнерским ссылкам ниже.

[underverse.su].t71914.torrent
Трекер: Зарегистрирован   [ 02.11.2016 14:30 ]  

Статус: проверено (by ARI71 at 02.11.2016 14:34)
Поблагодарили: пока никто не поблагодарил...
Тип торрента: публичный - доступные источники с открытых трекеров: 
Размер: 500 MB (занимает 0,11 DVDR, для записи нужно 1 болванка DVDR/RW)
 
 

ARI71 Пол:Муж

02-Ноя-2016 14:39

Приятного всем просмотра!

Голосуй за трекер!!




Яндекс.Метрика powered by Sphinx


В Н И М А Н И Е
Сайт не распространяет и не хранит электронные версии произведений, а лишь бесплатно и без коммерческой выгоды (не требуя взамен платы,
SMS и т.д.) предоставляет доступ к создаваемому пользователями каталогу ссылок на торрент-файлы, которые содержат только списки хеш-сумм.
Убедительная просьба с жалобами обращаться напрямую к пользователю, разместившему торрент файл.

Вверх