Loading...
Error

Великая битва Александра Македонского / Alexander's Greatest Battle (Джереми Джеффс) [2009 г., документальный, история, исследования, HDTVRip] Dub (SDI Media)

Статистика раздачи
Размер:  700 MB   |    Зарегистрирован:  1 месяц 1 день   |    Скачан:  0 раз

Полного источника не было: 1 месяц

Сидов:  0  |  0 KB/s  ]   Личеров:  0  |  0 KB/s  ]

* - сиды/пиры с внешних источников

   
 
Автор Сообщение

ARI71 Пол:Муж

02-Ноя-2016 07:55

Великая битва Александра Македонского / Alexander's Greatest Battle


Год выпуска: 2009
Жанр: документальный, история, исследования
Страна: Великобритания ВВС Maya Vision International
Режиссер: Джереми Джеффс
Ведущий: Майкл Вуд
Текст читает: Роман Антонович
Сюжет фильма:
Вместе с Майклом Вудом мы отправляемся в путешествие по Сирии и Ираку, чтобы раскрыть тайну решающей битвы Александра Македонского против Персидской державы, состоявшейся в 331 году до нашей эры. Принято считать, что место сражения расположено вблизи города Эрбиль на севере Ирака, однако точное место установлено не было. При помощи клинописной глиняной таблички из Британского музея и древнеегипетского папируса удается пролить свет на ход событий, а реконструкция военной кампании помогает проследить путь Александра Македонского через Дамаск и Алеппо к реке Евфрат в Сирии.
Качество видео: HDTVRip

Продолжительность: 00:48:02
Формат: AVI
Видео: XviD, 720x400, 1836 kbps
Аудио: русский, дублированный [SDI Media], AC3 2.0, 192.00 kbps

Релиз от: Koenig

Код:

Общее
Полное имя : D:\Alexander.Greatest.Battle.2009.HDTVRip.avi
Формат : AVI
Формат/Информация : Audio Video Interleave
Размер файла : 700 Мбайт
Продолжительность : 48 м.
Общий поток : 2038 Кбит/сек
Программа кодирования : VirtualDubMod 1.5.10.2 (build 2540/release)
Библиотека кодирования : VirtualDubMod build 2540/release

Видео
Идентификатор : 0
Формат : MPEG-4 Visual
Профиль формата : Advanced Simple@L5
Параметр BVOP формата : 1
Параметр QPel формата : Нет
Параметр GMC формата : Без точки перехода
Параметр матрицы формата : Выборочная
Идентификатор кодека : XVID
Идентификатор кодека/Подсказка : XviD
Продолжительность : 48 м.
Битрейт : 1836 Кбит/сек
Ширина : 720 пикселей
Высота : 400 пикселей
Соотношение сторон : 16:9
Частота кадров : 25,000 кадров/сек
Цветовое пространство : YUV
Субдискретизация насыщенности : 4:2:0
Битовая глубина : 8 бит
Тип развёртки : Прогрессивная
Метод сжатия : С потерями
Бит/(Пиксели*Кадры) : 0.255
Размер потока : 631 Мбайт (90%)
Библиотека кодирования : XviD 73

Аудио
Идентификатор : 1
Формат : AC-3
Формат/Информация : Audio Coding 3
Расширение режима : CM (complete main)
Параметр Endianness формата : Big
Идентификатор кодека : 2000
Продолжительность : 48 м.
Вид битрейта : Постоянный
Битрейт : 192 Кбит/сек
Каналы : 2 канала
Расположение каналов : Front: L R
Частота : 48,0 КГц
Частота кадров : 31,250 кадров/сек (1536 spf)
Метод сжатия : С потерями
Размер потока : 66,0 Мбайт (9%)
Выравнивание : Разделение по промежуткам
Продолжительность промежутка : 40 мс. (1,00 видеокадр)
Время предзагрузки промежутка : 500 мс.
picpicpicpicpic
Для увеличения картинки щелкните мышкой по превью

Этот торрент недоступен для скачивания без регистрации, однако доступен по публичной magnet-ссылке (источники с публичных трекеров). Перед использованием ссылки прочтите, пожалуйста Пользовательское соглашение, а также как можно дольше оставайтесь на раздаче! Для того, чтобы скачать сам торрент-файл (который видит больше источников), а также для того, чтобы поблагодарить релизера, вам необходимо зарегистрироваться. Если регистрироваться лень - вы можете также попробовать скачать релиз по нашим партнерским ссылкам ниже.

[underverse.su].t71864.torrent
Трекер: Зарегистрирован   [ 02.11.2016 07:55 ]  

Статус: проверено (by ARI71 at 02.11.2016 08:02)
Поблагодарили: пока никто не поблагодарил...
Тип торрента: публичный - доступные источники с открытых трекеров: 
Размер: 700 MB (занимает 0,16 DVDR, для записи нужно 1 болванка DVDR/RW)
 
 
Похожие темы
Форум Тема Автор Торрент Отв. Посл. сооб.
BBC Великая битва Александра Македонского / Alexander's Greatest Battle (Джереми Джеффс) [2009 г., документальный, путешествия, история, SatRip] VO (SDI Media) ARI71
2 | 1

0 | 239

1

10.11.2016 10:17

ARI71 Пол:Муж

02-Ноя-2016 08:03

Приятного всем просмотра!

Голосуй за трекер!!




Яндекс.Метрика powered by Sphinx


В Н И М А Н И Е
Сайт не распространяет и не хранит электронные версии произведений, а лишь бесплатно и без коммерческой выгоды (не требуя взамен платы,
SMS и т.д.) предоставляет доступ к создаваемому пользователями каталогу ссылок на торрент-файлы, которые содержат только списки хеш-сумм.
Убедительная просьба с жалобами обращаться напрямую к пользователю, разместившему торрент файл.

Вверх