Loading...
Error

Москва, я терплю тебя (Сергей Аксёнов) [2016 г., драма, мелодрама, комедия, WEB-DLRip] RUS (Line)

Статистика раздачи
Размер:  1,37 GB   |    Зарегистрирован:  1 месяц 4 дня   |    Скачан:  19 раз
Сидов:  1  |  0 KB/s  ]   Личеров:  0  |  0 KB/s  ]

* - сиды/пиры с внешних источников

   
 
Автор Сообщение

makkol Пол:Муж

31-Окт-2016 21:47

Москва, я терплю тебя


Год выпуска: 2016
Жанр: драма, мелодрама, комедия
Страна: Россия
Режиссер: Сергей Аксёнов
В ролях: Илья Ермолов, Евгений Морозов, Николай Орловский, Лина Шишова, Марина Забелина, Евгений Волоцкий, Денис Шведов, Ольга Кавалай-Аксёнова, Дмитрий Супонин, Ульяна Урванцева
Сюжет фильма:
Москва. Редкий солнечный день. Александр надеется отдохнуть от рабочей суеты и заняться любимым делом. Однако клиенты требуют встреч, а девушка жаждет похода по магазинам. Вдобавок ко всему, на один день из Гомеля, приезжает бывший одноклассник, который, во что бы то ни стало, хочет выпить с Саней пиво. Да к тому же, срочно требуется помощь ещё одному другу. А тут, вдруг, к одной из клиенток вспыхивает любовь. А приехавший одноклассник внезапно рушит все планы. И всё это за один день. Оказывается, в бешеном водовороте столичной жизни, очень легко потерять себя. Либо наоборот, найти.

  • Российская премьера: 13 октября 2016


Качество видео: WEB-DLRip

Продолжительность: 01:33:19
Формат: AVI
Видео: XviD, 720x304 (2.35:1), 25.000 fps, 1703 kbps
Аудио: русский, оригинал (чистый звук), AC3 2.0, 48 kHz, 384 kbps

Код:

Формат                                   : AVI
Формат/Информация                        : Audio Video Interleave
Размер файла                             : 1,37 Гбайт
Продолжительность                        : 1 ч. 33 м.
Общий поток                              : 2097 Кбит/сек
Программа кодирования                    : VirtualDubMod 1.5.10.2 (build 2540/release)
Библиотека кодирования                   : VirtualDubMod build 2540/release

Видео
Идентификатор                            : 0
Формат                                   : MPEG-4 Visual
Профиль формата                          : Advanced Simple@L5
Параметр BVOP формата                    : 2
Параметр QPel формата                    : Нет
Параметр GMC формата                     : Без точки перехода
Параметр матрицы формата                 : Default (MPEG)
Идентификатор кодека                     : XVID
Идентификатор кодека/Подсказка           : XviD
Продолжительность                        : 1 ч. 33 м.
Битрейт                                  : 1703 Кбит/сек
Ширина                                   : 720 пикселей
Высота                                   : 304 пикселя
Соотношение сторон                       : 2,35:1
Частота кадров                           : 25,000 кадров/сек
Цветовое пространство                    : YUV
Субдискретизация насыщенности            : 4:2:0
Битовая глубина                          : 8 бит
Тип развёртки                            : Прогрессивная
Метод сжатия                             : С потерями
Бит/(Пиксели*Кадры)                      : 0.311
Размер потока                            : 1,11 Гбайт (81%)
Библиотека кодирования                   : XviD 1.2.1 (UTC 2008-12-04)

Аудио
Идентификатор                            : 1
Формат                                   : AC-3
Формат/Информация                        : Audio Coding 3
Расширение режима                        : CM (complete main)
Параметр Endianness формата              : Big
Идентификатор кодека                     : 2000
Продолжительность                        : 1 ч. 33 м.
Вид битрейта                             : Постоянный
Битрейт                                  : 384 Кбит/сек
Каналы                                   : 2 канала
Расположение каналов                     : Front: L R
Частота                                  : 48,0 КГц
Частота кадров                           : 31,250 кадров/сек (1536 spf)
Метод сжатия                             : С потерями
Размер потока                            : 256 Мбайт (18%)
Выравнивание                             : Разделение по промежуткам
Продолжительность промежутка             : 40  мс. (1,00 видеокадр)
Время предзагрузки промежутка            : 500  мс.


picpicpicpicpic
Для увеличения картинки щелкните мышкой по превью

Этот торрент недоступен для скачивания без регистрации, однако доступен по публичной magnet-ссылке (источники с публичных трекеров). Перед использованием ссылки прочтите, пожалуйста Пользовательское соглашение, а также как можно дольше оставайтесь на раздаче! Для того, чтобы скачать сам торрент-файл (который видит больше источников), а также для того, чтобы поблагодарить релизера, вам необходимо зарегистрироваться. Если регистрироваться лень - вы можете также попробовать скачать релиз по нашим партнерским ссылкам ниже.

[underverse.su].t71774.torrent
Трекер: Зарегистрирован   [ 31.10.2016 21:47 ]  

Статус: T временная (by Паукан at 01.11.2016 05:17)
Поблагодарили: пока никто не поблагодарил...
Тип торрента: публичный - доступные источники с открытых трекеров: 
Размер: 1,37 GB (занимает 0,31 DVDR, для записи нужно 1 болванка DVDR/RW)
 
 
Похожие темы
Форум Тема Автор Торрент Отв. Посл. сооб.
T Наше кино [DVDRip, Low-Res HDRip, и т.д.] Москва, я терплю тебя (Сергей Аксёнов) [2016 г., драма, мелодрама, комедия, WEB-DLRip] RUS (iTunes) makkol
3 | 0

0 | 79

9

13.11.2016 21:38

T Наше кино [HDDVDRip / BDRip / WEB-DL / HDTV 1080/720р] Москва, я терплю тебя (Сергей Аксёнов) [2016 г., драма, мелодрама, комедия, WEB-DL 1080p] RUS (iTunes) makkol
310 | 18

0 | 112

8

13.11.2016 21:50

T Наше кино [HDDVDRip / BDRip / WEB-DL / HDTV 1080/720р] Москва, я терплю тебя (Сергей Аксёнов) [2016 г., драма, мелодрама, комедия, WEB-DL 720p] RUS (iTunes) makkol
96 | 3

0 | 67

4

13.11.2016 21:45

T Наше кино [HDDVDRip / BDRip / WEB-DL / HDTV 1080/720р] Москва, я терплю тебя (Сергей Аксёнов) [2016 г., драма, мелодрама, комедия, WEB-DL 720p] RUS (Line) makkol
487 | 6

0 | 248

12

31.10.2016 21:52


Яндекс.Метрика powered by Sphinx


В Н И М А Н И Е
Сайт не распространяет и не хранит электронные версии произведений, а лишь бесплатно и без коммерческой выгоды (не требуя взамен платы,
SMS и т.д.) предоставляет доступ к создаваемому пользователями каталогу ссылок на торрент-файлы, которые содержат только списки хеш-сумм.
Убедительная просьба с жалобами обращаться напрямую к пользователю, разместившему торрент файл.

Вверх