Loading...
Error

Острова. Спартак Мишулин (Денис Чуваев) [2016 г., документальный, биография, театр, кинематограф, SatRip]

Статистика раздачи
Размер:  437 MB   |    Зарегистрирован:  1 месяц 2 дня   |    Скачан:  0 раз

Полного источника не было: 1 месяц 2 дня

Сидов:  0  |  0 KB/s  ]   Личеров:  0  |  0 KB/s  ]

* - сиды/пиры с внешних источников

   
 
Автор Сообщение

ARI71 Пол:Муж

31-Окт-2016 12:58

Острова. Спартак Мишулин


Год выпуска: 2016
Жанр: документальный, биография, театр, кинематограф
Страна: Россия ГТРК "Культура"
Режиссер: Денис Чуваев
Сюжет фильма:
К Спартаку Мишулину даже в творческой среде отношение особое. Его бесстрашие, честность, доброта всегда вызывали восхищение. В немногословном благородном воине Саиде, в добром "в меру упитанном мужчине в полном рассвете сил" Карлсоне и во многих других его экранных героях проступают черты самого Спартака Васильевича Мишулина. О замечательном актере рассказывают: Валентина и Карина Мишулины, Александр Ширвиндт, Алена Яковлева, Валентина Шарыкина и др.

Спарта́к Васи́льевич Мишу́лин (22 октября 1926 — 17 июля 2005) — советский и российский актёр театра и кино. Народный артист РСФСР (1981), Заслуженный деятель культуры Польши (1975). Лауреат премии имени И. Смоктуновского. Лауреат премии имени братьев Люмьер. Лауреат Государственной премии России (1998)
Качество видео: SatRip

Продолжительность: 00:39:00
Формат: AVI
Видео: XviD, 704x528, 1400 kbps
Аудио: русский, (оригинал), MP3 2.0, 128.00 kbps

Рип от: kosta52

Код:

Общее
Полное имя : D:\Острова. Спартак Мишулин.2016.SATRip.kosta52.avi
Формат : AVI
Формат/Информация : Audio Video Interleave
Размер файла : 437 Мбайт
Продолжительность : 39 м.
Общий поток : 1538 Кбит/сек
Программа кодирования : VirtualDubMod 1.5.10.3 | www.virtualdub-fr.org || (build 2550/release)
Библиотека кодирования : VirtualDubMod build 2550/release

Видео
Идентификатор : 0
Формат : MPEG-4 Visual
Профиль формата : Advanced Simple@L5
Параметр BVOP формата : 2
Параметр QPel формата : Нет
Параметр GMC формата : Без точки перехода
Параметр матрицы формата : Default (H.263)
Идентификатор кодека : XVID
Идентификатор кодека/Подсказка : XviD
Продолжительность : 39 м.
Битрейт : 1400 Кбит/сек
Ширина : 704 пикселя
Высота : 528 пикселей
Соотношение сторон : 4:3
Частота кадров : 25,000 кадров/сек
Цветовое пространство : YUV
Субдискретизация насыщенности : 4:2:0
Битовая глубина : 8 бит
Тип развёртки : Прогрессивная
Метод сжатия : С потерями
Бит/(Пиксели*Кадры) : 0.151
Размер потока : 398 Мбайт (91%)
Библиотека кодирования : XviD 1.2.1 (UTC 2008-12-04)

Аудио
Идентификатор : 1
Формат : MPEG Audio
Версия формата : Version 1
Профиль формата : Layer 3
Идентификатор кодека : 55
Идентификатор кодека/Подсказка : MP3
Продолжительность : 39 м.
Вид битрейта : Постоянный
Битрейт : 128 Кбит/сек
Каналы : 2 канала
Частота : 48,0 КГц
Метод сжатия : С потерями
Размер потока : 36,4 Мбайт (8%)
Выравнивание : Соединение по промежуткам
Продолжительность промежутка : 40 мс. (1,00 видеокадр)
Время предзагрузки промежутка : 504 мс.
Библиотека кодирования : LAME3.99r
Настройки программы : -m s -V 4 -q 2 -lowpass 17 -b 128
picpicpicpic
Для увеличения картинки щелкните мышкой по превью

Этот торрент недоступен для скачивания без регистрации, однако доступен по публичной magnet-ссылке (источники с публичных трекеров). Перед использованием ссылки прочтите, пожалуйста Пользовательское соглашение, а также как можно дольше оставайтесь на раздаче! Для того, чтобы скачать сам торрент-файл (который видит больше источников), а также для того, чтобы поблагодарить релизера, вам необходимо зарегистрироваться. Если регистрироваться лень - вы можете также попробовать скачать релиз по нашим партнерским ссылкам ниже.

[underverse.su].t71762.torrent
Трекер: Зарегистрирован   [ 31.10.2016 12:58 ]  

Статус: проверено (by ARI71 at 31.10.2016 13:01)
Поблагодарили: пока никто не поблагодарил...
Тип торрента: публичный - доступные источники с открытых трекеров: 
Размер: 437 MB (занимает 0,1 DVDR, для записи нужно 1 болванка DVDR/RW)
 
 

ARI71 Пол:Муж

31-Окт-2016 13:01

Приятного всем просмотра!

Голосуй за трекер!!




Яндекс.Метрика powered by Sphinx


В Н И М А Н И Е
Сайт не распространяет и не хранит электронные версии произведений, а лишь бесплатно и без коммерческой выгоды (не требуя взамен платы,
SMS и т.д.) предоставляет доступ к создаваемому пользователями каталогу ссылок на торрент-файлы, которые содержат только списки хеш-сумм.
Убедительная просьба с жалобами обращаться напрямую к пользователю, разместившему торрент файл.

Вверх