Loading...
Error

Дуэлянт (Алексей Мизгирёв) [2016 г., драма, WEB-DLRip] RUS (iTunes)

Статистика раздачи
Размер:  1,45 GB   |    Зарегистрирован:  1 месяц 5 дней   |    Скачан:  57 раз
Сидов:  12  |  39 KB/s  ]   Личеров:  0  |  0 KB/s  ]

* - сиды/пиры с внешних источников

   
 
Автор Сообщение

makkol Пол:Муж

30-Окт-2016 21:23

Дуэлянт
«На темной стороне чести»


Год выпуска: 2016
Жанр: драма
Производство: Россия [Нон-стоп Продакшн]
Режиссер: Алексей Мизгирёв
В ролях: Пётр Фёдоров, Владимир Машков, Юлия Хлынина, Франциска Петри, Мартин Вуттке, Сергей Гармаш, Павел Табаков, Пьер Бурель
Сюжет фильма:
В центре сюжета профессиональный дуэлянт, который зарабатывает на жизнь, участвуя в поединках за других людей...

  • Мировая премьера: 9 сентября 2016
  • Российская премьера: 29 сентября 2016


Качество видео: WEB-DLRip

Продолжительность: 01:44:43
Формат: AVI
Видео: XviD, 720x304 (2.35:1), 25.000 fps, 1595 kbps
Аудио: русский, оригинал (iTunes), AC3 2.0, 48 kHz, 384 kbps

Код:

Формат                                   : AVI
Формат/Информация                        : Audio Video Interleave
Размер файла                             : 1,45 Гбайт
Продолжительность                        : 1 ч. 44 м.
Общий поток                              : 1989 Кбит/сек
Программа кодирования                    : VirtualDubMod 1.5.10.2 (build 2540/release)
Библиотека кодирования                   : VirtualDubMod build 2540/release

Видео
Идентификатор                            : 0
Формат                                   : MPEG-4 Visual
Профиль формата                          : Advanced Simple@L5
Параметр BVOP формата                    : 2
Параметр QPel формата                    : Нет
Параметр GMC формата                     : Без точки перехода
Параметр матрицы формата                 : Default (MPEG)
Идентификатор кодека                     : XVID
Идентификатор кодека/Подсказка           : XviD
Продолжительность                        : 1 ч. 44 м.
Битрейт                                  : 1595 Кбит/сек
Ширина                                   : 720 пикселей
Высота                                   : 304 пикселя
Соотношение сторон                       : 2,35:1
Частота кадров                           : 25,000 кадров/сек
Цветовое пространство                    : YUV
Субдискретизация насыщенности            : 4:2:0
Битовая глубина                          : 8 бит
Тип развёртки                            : Прогрессивная
Метод сжатия                             : С потерями
Бит/(Пиксели*Кадры)                      : 0.291
Размер потока                            : 1,17 Гбайт (80%)
Библиотека кодирования                   : XviD 1.2.1 (UTC 2008-12-04)

Аудио
Идентификатор                            : 1
Формат                                   : AC-3
Формат/Информация                        : Audio Coding 3
Расширение режима                        : CM (complete main)
Параметр Endianness формата              : Big
Идентификатор кодека                     : 2000
Продолжительность                        : 1 ч. 44 м.
Вид битрейта                             : Постоянный
Битрейт                                  : 384 Кбит/сек
Каналы                                   : 2 канала
Расположение каналов                     : Front: L R
Частота                                  : 48,0 КГц
Частота кадров                           : 31,250 кадров/сек (1536 spf)
Метод сжатия                             : С потерями
Размер потока                            : 288 Мбайт (19%)
Выравнивание                             : Разделение по промежуткам
Продолжительность промежутка             : 40  мс. (1,00 видеокадр)
Время предзагрузки промежутка            : 500  мс.


picpicpicpicpic
Для увеличения картинки щелкните мышкой по превью

Этот торрент недоступен для скачивания без регистрации, однако доступен по публичной magnet-ссылке (источники с публичных трекеров). Перед использованием ссылки прочтите, пожалуйста Пользовательское соглашение, а также как можно дольше оставайтесь на раздаче! Для того, чтобы скачать сам торрент-файл (который видит больше источников), а также для того, чтобы поблагодарить релизера, вам необходимо зарегистрироваться. Если регистрироваться лень - вы можете также попробовать скачать релиз по нашим партнерским ссылкам ниже.

[underverse.su].t71759.torrent
Трекер: Зарегистрирован   [ 30.10.2016 21:23 ]  

Статус: T временная (by makkol at 02.11.2016 10:16)
Поблагодарили: 3 человека
Тип торрента: публичный - доступные источники с открытых трекеров: 
Размер: 1,45 GB (занимает 1/3 DVDR, для записи нужно 1 болванка DVDR/RW)
 
 
Похожие темы
Форум Тема Автор Торрент Отв. Посл. сооб.
T Наше кино [DVDRip, Low-Res HDRip, и т.д.] Дуэлянт (Алексей Мизгирёв) [2016 г., драма, WEB-DLRip-AVC] Original (iTunes) 90ytr90
1093 | 22

0 | 116

10

19.11.2016 12:36

T Наше кино [DVDRip, Low-Res HDRip, и т.д.] Дуэлянт (Алексей Мизгирёв) [2016 г., драма, WEB-DLRip-AVC] Original (iTunes) 90ytr90
452 | 6

0 | 107

10

19.11.2016 12:32

T Наше кино [DVDRip, Low-Res HDRip, и т.д.] Дуэлянт (Алексей Мизгирёв) [2016 г., драма, WEB-DLRip] Original (iTunes) 90ytr90
291 | 15

0 | 99

3

19.11.2016 12:27

T Наше кино [HDDVDRip / BDRip / WEB-DL / HDTV 1080/720р] Дуэлянт (Алексей Мизгирёв) [2016 г., драма, WEB-DL 720p] RUS (iTunes) makkol
2235 | 121

0 | 291

18

30.10.2016 21:31

T Наше кино [HDDVDRip / BDRip / WEB-DL / HDTV 1080/720р] Дуэлянт (Алексей Мизгирёв) [2016 г., драма, WEB-DL 1080p] RUS (iTunes) makkol
5061 | 119

0 | 480

73

30.10.2016 21:37

T Новинки кино [CAMRip, TS, DVDScr, WP, TC] Дуэлянт (Алексей Мизгирёв) [2016 г., драма, CAMRip] makkol
1217 | 8

3 | 941

77

06.10.2016 09:44


Яндекс.Метрика powered by Sphinx


В Н И М А Н И Е
Сайт не распространяет и не хранит электронные версии произведений, а лишь бесплатно и без коммерческой выгоды (не требуя взамен платы,
SMS и т.д.) предоставляет доступ к создаваемому пользователями каталогу ссылок на торрент-файлы, которые содержат только списки хеш-сумм.
Убедительная просьба с жалобами обращаться напрямую к пользователю, разместившему торрент файл.

Вверх