Loading...
Error

Эдуард Хиль. Короли не уходят (Евгений Похоменков) [2013 г., документальный, искусство, культура, биография, IPTVRip]

Статистика раздачи
Размер:  470 MB   |    Зарегистрирован:  7 месяцев   |    Скачан:  1 раз

Полного источника не было: 7 месяцев

Сидов:  0  |  0 KB/s  ]   Личеров:  0  |  0 KB/s  ]

* - сиды/пиры с внешних источников

   
 
Автор Сообщение

ARI71 Пол:Муж

30-Окт-2016 08:47

Эдуард Хиль. Короли не уходят


Год выпуска: 2013
Жанр: документальный, искусство, культура, биография
Страна: Россия «ТВ Студия Кетлин»
Режиссер: Евгений Похоменков
В ролях: Эдита Пьеха, Людмила Матусова – сестра артиста, Марина Девятова, Юлия Савичева, Алексей Чумаков, Дмитрий Хиль – сын, Эдуард Хиль-младший – внук
Сюжет фильма:
"Как провожают пароходы", "Я шагаю по Москве", "Песня о друге"… Эти песни когда-то знал наизусть практически каждый советский человек. Их исполнитель Эдуард Хиль прошёл удивительный путь: в течение одной жизни он взошёл на вершину, оставил её, и снова стремительно взлетел вверх. Он до последнего дня был предан сцене и своим зрителям.

Эдуа́рд Анато́льевич Хиль (4 сентября 1934, Смоленск — 4 июня 2012, Санкт-Петербург) — советский и российский эстрадный певец (баритон), народный артист РСФСР (1974)
Качество видео: IPTVRip

Продолжительность: 00:38:40
Формат: AVI
Видео: XviD, 704x400, 1498 kbps
Аудио: русский, (оригинал), MP3 2.0, 192.00 kbps

Код:

Общее
Полное имя : D:\Эдуард Хиль. Короли не уходят (DaVinci).avi
Формат : AVI
Формат/Информация : Audio Video Interleave
Размер файла : 470 Мбайт
Продолжительность : 38 м.
Общий поток : 1700 Кбит/сек
Библиотека кодирования : VirtualDub build 35491/release

Видео
Идентификатор : 0
Формат : MPEG-4 Visual
Профиль формата : Advanced Simple@L5
Параметр BVOP формата : 2
Параметр QPel формата : Нет
Параметр GMC формата : Без точки перехода
Параметр матрицы формата : Default (MPEG)
Режим смешивания : Сжатый битовый поток
Идентификатор кодека : XVID
Идентификатор кодека/Подсказка : XviD
Продолжительность : 38 м.
Битрейт : 1498 Кбит/сек
Ширина : 704 пикселя
Высота : 400 пикселей
Соотношение сторон : 16:9
Частота кадров : 25,000 кадров/сек
Цветовое пространство : YUV
Субдискретизация насыщенности : 4:2:0
Битовая глубина : 8 бит
Тип развёртки : Прогрессивная
Метод сжатия : С потерями
Бит/(Пиксели*Кадры) : 0.213
Размер потока : 414 Мбайт (88%)
Библиотека кодирования : XviD 73

Аудио
Идентификатор : 1
Формат : MPEG Audio
Версия формата : Version 1
Профиль формата : Layer 3
Режим : Joint stereo
Идентификатор кодека : 55
Идентификатор кодека/Подсказка : MP3
Продолжительность : 38 м.
Вид битрейта : Постоянный
Битрейт : 192 Кбит/сек
Каналы : 2 канала
Частота : 48,0 КГц
Метод сжатия : С потерями
Размер потока : 53,1 Мбайт (11%)
Выравнивание : Разделение по промежуткам
Продолжительность промежутка : 40 мс. (1,00 видеокадр)
Время предзагрузки промежутка : 500 мс.
picpicpicpicpic
Для увеличения картинки щелкните мышкой по превью

Этот торрент недоступен для скачивания без регистрации, однако доступен по публичной magnet-ссылке (источники с публичных трекеров). Перед использованием ссылки прочтите, пожалуйста Пользовательское соглашение, а также как можно дольше оставайтесь на раздаче! Для того, чтобы скачать сам торрент-файл (который видит больше источников), а также для того, чтобы поблагодарить релизера, вам необходимо зарегистрироваться. Если регистрироваться лень - вы можете также попробовать скачать релиз по нашим партнерским ссылкам ниже.

[underverse.su].t71689.torrent
Трекер: Зарегистрирован   [ 30.10.2016 08:47 ]  

Статус: проверено (by ARI71 at 30.10.2016 08:49)
Поблагодарили: пока никто не поблагодарил...
Тип торрента: публичный - доступные источники с открытых трекеров: 
Размер: 470 MB (занимает 0,1 DVDR, для записи нужно 1 болванка DVDR/RW)
 
 
Похожие темы
Форум Тема Автор Торрент Отв. Посл. сооб.
Отечественная Ретро Музыка Эдуард Хиль - Лучшие Песни (2CD) (2012) [MP3, 320 kbps] Jimmy
6 | 0

0 | 766

18

05.04.2014 08:26

ARI71 Пол:Муж

30-Окт-2016 08:50

Приятного всем просмотра!

Голосуй за трекер!!




Яндекс.Метрика powered by Sphinx


В Н И М А Н И Е
Сайт не распространяет и не хранит электронные версии произведений, а лишь бесплатно и без коммерческой выгоды (не требуя взамен платы,
SMS и т.д.) предоставляет доступ к создаваемому пользователями каталогу ссылок на торрент-файлы, которые содержат только списки хеш-сумм.
Убедительная просьба с жалобами обращаться напрямую к пользователю, разместившему торрент файл.

Вверх