Loading...
Error

Сети истории. Правдивая история о Караваджо / Storia in Rete. La vera storia di Caravaggio (Александра Джиганте, Фабио Андриола) [2013 г., документальный, постановочный, история, архитектура, SatRip] DVO (Игмар)

Статистика раздачи
Размер:  824 MB   |    Зарегистрирован:  1 год   |    Скачан:  2 раза

Полного источника не было: 5 месяцев 8 дней

Сидов:  0  |  0 KB/s  ]   Личеров:  0  |  0 KB/s  ]

* - сиды/пиры с внешних источников

   
 
Автор Сообщение

ARI71 Пол:Муж

29-Окт-2016 09:27

Сети истории. Правдивая история о Караваджо / Storia in Rete. La vera storia di Caravaggio


Год выпуска: 2013
Жанр: документальный, постановочный, история, архитектура
Страна: Италия Storia in Rete
Режиссер: Александра Джиганте, Фабио Андриола
Сюжет фильма:
"Storia in Rete" является независимой производственной компанией, специализирующаяся на культурных и исторических документальных фильмах. С 2005 года было выпущено около 40 фильмов. От средневековья до эпохи Возрождения, от девятнадцатого до двадцатого века в основном история и Итальянская культура. Каждый документальный фильм компании "Storia in Rete" является результатом точного исторического анализа и освещает малоизвестные события и персонажи, которые помогли сделать политическую и культурную историю Европы. Тщательное и кропотливое исследование объясняет и комментирует те места и события где они происходили. Сюжеты чередуются реконструкцией в костюмах, иконографией времени и всегда стараются поддерживать устойчивый темп ближе к роману, чем уроку истории.

Блистательный художник, один из крупнейших представителей барокко, Караваджо не раз бросал вызов и судьбе и окружающим. Он не щадил ни себя, ни тех, кому он был дорог. Враги клеймили его убийцей и развратником. Но что же двигало врагами Караваджо? За что его так поносили? Правда ли, что от его картин часто отказывались, а он все равно получал новые заказы?
Качество видео: SatRip

Продолжительность: 00:57:31
Формат: AVI
Видео: AVC (x264), 720x400, 1800 kbps
Аудио: русский, двухголосый закадровый [профессиональный, Игмар], AC3 2.0, 192.00 kbps

Автор рипа: skorpionN

Код:

Общее
Полное имя : D:\La vera storia di Caravaggio.avi
Формат : AVI
Формат/Информация : Audio Video Interleave
Размер файла : 824 Мбайт
Продолжительность : 57 м.
Общий поток : 2002 Кбит/сек
Программа кодирования : VirtualDubMod 1.5.10.3 | www.virtualdub-fr.org || (build 2550/release)
Библиотека кодирования : VirtualDubMod build 2550/release

Видео
Идентификатор : 0
Формат : AVC
Формат/Информация : Advanced Video Codec
Профиль формата : High@L3
Параметр CABAC формата : Да
Параметр ReFrames формата : 4 кадра
Идентификатор кодека : h264
Продолжительность : 57 м.
Битрейт : 1800 Кбит/сек
Ширина : 720 пикселей
Высота : 400 пикселей
Соотношение сторон : 16:9
Частота кадров : 25,000 кадров/сек
Цветовое пространство : YUV
Субдискретизация насыщенности : 4:2:0
Битовая глубина : 8 бит
Тип развёртки : Прогрессивная
Бит/(Пиксели*Кадры) : 0.250
Размер потока : 741 Мбайт (90%)
Библиотека кодирования : x264 core 146 r2538 121396c
Настройки программы : cabac=1 / ref=3 / deblock=1:0:0 / analyse=0x3:0 / me=dia / subme=1 / psy=1 / psy_rd=1.00:0.00 / mixed_ref=0 / me_range=16 / chroma_me=1 / trellis=1 / 8x8dct=1 / cqm=0 / deadzone=21,11 / fast_pskip=1 / chroma_qp_offset=0 / threads=6 / lookahead_threads=1 / sliced_threads=0 / nr=0 / decimate=1 / interlaced=0 / bluray_compat=0 / constrained_intra=0 / bframes=3 / b_pyramid=2 / b_adapt=1 / b_bias=0 / direct=3 / weightb=1 / open_gop=0 / weightp=2 / keyint=250 / keyint_min=25 / scenecut=40 / intra_refresh=0 / rc_lookahead=40 / rc=2pass / mbtree=1 / bitrate=1800 / ratetol=1.0 / qcomp=0.60 / qpmin=0 / qpmax=69 / qpstep=4 / cplxblur=20.0 / qblur=0.5 / ip_ratio=1.40 / aq=1:1.00

Аудио
Идентификатор : 1
Формат : AC-3
Формат/Информация : Audio Coding 3
Расширение режима : CM (complete main)
Параметр Endianness формата : Big
Идентификатор кодека : 2000
Продолжительность : 57 м.
Вид битрейта : Постоянный
Битрейт : 192 Кбит/сек
Каналы : 2 канала
Расположение каналов : Front: L R
Частота : 48,0 КГц
Частота кадров : 31,250 кадров/сек (1536 spf)
Метод сжатия : С потерями
Размер потока : 79,0 Мбайт (10%)
Выравнивание : Разделение по промежуткам
Продолжительность промежутка : 40 мс. (1,00 видеокадр)
Время предзагрузки промежутка : 500 мс.
picpicpicpicpic
Для увеличения картинки щелкните мышкой по превью

Этот торрент недоступен для скачивания без регистрации, однако доступен по публичной magnet-ссылке (источники с публичных трекеров). Перед использованием ссылки прочтите, пожалуйста Пользовательское соглашение, а также как можно дольше оставайтесь на раздаче! Для того, чтобы скачать сам торрент-файл (который видит больше источников), а также для того, чтобы поблагодарить релизера, вам необходимо зарегистрироваться. Если регистрироваться лень - вы можете также попробовать скачать релиз по нашим партнерским ссылкам ниже.

[underverse.su].t71673.torrent
Трекер: Зарегистрирован   [ 29.10.2016 09:27 ]  

Статус: проверено (by ARI71 at 29.10.2016 09:28)
Поблагодарили: пока никто не поблагодарил...
Тип торрента: публичный - доступные источники с открытых трекеров: 
Размер: 824 MB (занимает 0,18 DVDR, для записи нужно 1 болванка DVDR/RW)
 
 
Похожие темы
Форум Тема Автор Торрент Отв. Посл. сооб.
Исторические фильмы Сети истории. Анна Мария Луиза Медичи-последняя из Медичи / Storia in Rete. L’ultima del Medici: l’Elettrice Palatina (Александра Джиганте) [2011 г., документальный, постановочный, история, SatRip]... ARI71
0 | 1

1 | 735

1

25.11.2016 07:02

Исторические фильмы Сети истории. Джироламо Савонарола / Storia in Rete. Le visioni di Savonarola (Александра Джиганте) [2011 г., документальный, постановочный, история, SatRip] DVO (Игмар) ARI71
0 | 1

0 | 718

2

17.11.2016 18:48

Исторические фильмы Сети истории. Галилео Галилей / Storia in Rete. Galileo Galilei (Александра Джиганте) [2009 г., документальный, постановочный, история, архитектура, SatRip] DVO (Игмар) ARI71
1 | 0

1 | 559

1

03.11.2016 13:49

Исторические фильмы Сети истории. Правдивая история о Ромео и Джульетте / Storia in Rete. La vera storia di Romeo e Giulietta (Александра Джиганте) [2011 г., документальный, постановочный, история, архитектура, SatRip]... ARI71
0 | 0

1 | 707

2

20.10.2016 18:49

Исторические фильмы Сети истории. Изабелла д'Эсте – Примадонна Возрождения / Storia in Rete. Isabella d'Este - La Signora del Rinascimento (Александра Джиганте) [2011 г., документальный, история, архитектура, SatRip]... ARI71
0 | 1

1 | 570

0

14.10.2016 11:31

Исторические фильмы Сети истории. Правдивая история Никколо Макиавелли / Storia in Rete. Niccolo Machiavelli (Александра Джиганте) [2011 г., документальный, постановочный, история, архитектура, исследования, SatRip] VO... ARI71
0 | 0

1 | 910

3

07.10.2016 10:36

ARI71 Пол:Муж

29-Окт-2016 09:36

Приятного всем просмотра!

Голосуй за трекер!!




Яндекс.Метрика powered by Sphinx


В Н И М А Н И Е
Сайт не распространяет и не хранит электронные версии произведений, а лишь бесплатно и без коммерческой выгоды (не требуя взамен платы,
SMS и т.д.) предоставляет доступ к создаваемому пользователями каталогу ссылок на торрент-файлы, которые содержат только списки хеш-сумм.
Убедительная просьба с жалобами обращаться напрямую к пользователю, разместившему торрент файл.

Вверх