Loading...
Error

Жил, чтобы помнили... (Я не могу больше жить). Леонид Филатов (Владимир Батраков) [2006 г., документальный, биография, кинематограф, TVRip]

Статистика раздачи
Размер:  521 MB   |    Зарегистрирован:  1 месяц 9 дней   |    Скачан:  1 раз

Полного источника не было: 2 дня 18 часов

Сидов:  0  |  0 KB/s  ]   Личеров:  0  |  0 KB/s  ]

* - сиды/пиры с внешних источников

   
 
Автор Сообщение

ARI71 Пол:Муж

28-Окт-2016 15:15

Жил, чтобы помнили... (Я не могу больше жить). Леонид Филатов


Год выпуска: 2006
Жанр: документальный, биография, кинематограф
Страна: Россия ООО "United Miltimedia Project", Телеканал "Россия"
Режиссер: Владимир Батраков
Сюжет фильма:
В 1996 году знаменитый актер Леонид Филатов перенес тяжелую операцию по удалению обеих почек. Почти два года жил на гемодиализе - процедуре полного переливания крови. Все это время его программа "Чтобы помнили" ни разу не сорвала эфир. Съемочная группа приезжала в клинику, и прямо на фоне больничной стены, после уколов анестезии, с толстым слоем грима на лице Филатов продолжал свои рассказы о забытых актерских судьбах. Как будто торопился сказать с экрана все то, что за многие годы наболело на душе. Тогда в больнице он говорил: "Бог дал мне жизнь еще раз, чтобы я, как в молодости, не тратил ее попусту". Вот только жизни этой у него осталось совсем немного...

Леони́д Алексе́евич Фила́тов (24 декабря 1946, Казань, РСФСР, СССР — 26 октября 2003, Москва, Россия) — советский и российский актёр театра и кино, кинорежиссёр, поэт, писатель, публицист, телеведущий, Народный артист Российской Федерации (1995), лауреат Государственной премии РФ в области кино и телевидения и премии «Триумф».
Качество видео: TVRip

Продолжительность: 00:44:01
Формат: AVI
Видео: XviD, 704x384, 1516 kbps
Аудио: русский, (оригинал), MP3 2.0, 128.00 kbps

Код:

Общее
Полное имя : D:\Zhil.chtoby.pomnili.Leonid.Filatov.2006.XviD.TVRip.*другой трекер*.avi
Формат : AVI
Формат/Информация : Audio Video Interleave
Размер файла : 521 Мбайт
Продолжительность : 44 м.
Общий поток : 1654 Кбит/сек
Программа кодирования : VirtualDubMod 1.5.10.2 (build 2540/release)
Библиотека кодирования : VirtualDubMod build 2540/release

Видео
Идентификатор : 0
Формат : MPEG-4 Visual
Профиль формата : Advanced Simple@L5
Параметр BVOP формата : 1
Параметр QPel формата : Нет
Параметр GMC формата : Без точки перехода
Параметр матрицы формата : Default (H.263)
Идентификатор кодека : XVID
Идентификатор кодека/Подсказка : XviD
Продолжительность : 44 м.
Битрейт : 1516 Кбит/сек
Ширина : 704 пикселя
Высота : 384 пикселя
Соотношение сторон : 1,85:1
Частота кадров : 25,000 кадров/сек
Цветовое пространство : YUV
Субдискретизация насыщенности : 4:2:0
Битовая глубина : 8 бит
Тип развёртки : Прогрессивная
Метод сжатия : С потерями
Бит/(Пиксели*Кадры) : 0.224
Размер потока : 477 Мбайт (92%)
Библиотека кодирования : XviD 1.2.1 (UTC 2008-12-04)

Аудио
Идентификатор : 1
Формат : MPEG Audio
Версия формата : Version 1
Профиль формата : Layer 3
Идентификатор кодека : 55
Идентификатор кодека/Подсказка : MP3
Продолжительность : 44 м.
Вид битрейта : Постоянный
Битрейт : 128 Кбит/сек
Каналы : 2 канала
Частота : 48,0 КГц
Метод сжатия : С потерями
Размер потока : 40,3 Мбайт (8%)
Выравнивание : Соединение по промежуткам
Продолжительность промежутка : 40 мс. (1,00 видеокадр)
Время предзагрузки промежутка : 504 мс.
Библиотека кодирования : LAME3.98r
Настройки программы : -m s -V 4 -q 2 -lowpass 17 -b 128
picpicpicpic
Для увеличения картинки щелкните мышкой по превью

Этот торрент недоступен для скачивания без регистрации, однако доступен по публичной magnet-ссылке (источники с публичных трекеров). Перед использованием ссылки прочтите, пожалуйста Пользовательское соглашение, а также как можно дольше оставайтесь на раздаче! Для того, чтобы скачать сам торрент-файл (который видит больше источников), а также для того, чтобы поблагодарить релизера, вам необходимо зарегистрироваться. Если регистрироваться лень - вы можете также попробовать скачать релиз по нашим партнерским ссылкам ниже.

[underverse.su].t71652.torrent
Трекер: Зарегистрирован   [ 28.10.2016 15:15 ]  

Статус: проверено (by ARI71 at 28.10.2016 15:20)
Поблагодарили: 1 человек
Тип торрента: публичный - доступные источники с открытых трекеров: 
Размер: 521 MB (занимает 0,12 DVDR, для записи нужно 1 болванка DVDR/RW)
 
 

Яндекс.Метрика powered by Sphinx


В Н И М А Н И Е
Сайт не распространяет и не хранит электронные версии произведений, а лишь бесплатно и без коммерческой выгоды (не требуя взамен платы,
SMS и т.д.) предоставляет доступ к создаваемому пользователями каталогу ссылок на торрент-файлы, которые содержат только списки хеш-сумм.
Убедительная просьба с жалобами обращаться напрямую к пользователю, разместившему торрент файл.

Вверх